Ссылка на приватное зеркало нашего сайта всего за 1$. Внимание количество ограничено!!!

2 сезон

iTunes

1 сезон

1

2 сезон

2 сезон

iTunes

1 сезон

RePack

30

Ultimate

ВАЖНО

ИГРА 18+

pack

RePack

MK11
pack

Забери бонус

RePack

jed

!!Акция!!

Alien_Rage

RePack

fifa19

RePack

Assassins Creed: Odyssey

RePack

NEED FOR SPEED™ PAYBACK

4 сезон

9 сезон

Бесстыжие 9 сезон

Все сериалы

все сериалы на PB.wtf

RePack

FAR CRY 5
  

Безумие / Asylum (Дэвид МакКензи) [2005 г., Триллер, драма, мелодрама, WEB-DL 1080p от KORSAR][2хMVO] pb.wtf

Безумие через торрент pb.wtf

Размер: 10.12 GB | Добавлен: 1 год 3 мес. назад | Торрент скачан:21 раз
Скачать  

28-07-2019 09:32 Безумие Скачать торрент  

Безумие / AsylumГод выпуска: 2005
Жанр: Триллер, драма, мелодрама
Продолжительность: 01:39:47
Выпущено: Великобритания, Ирландия, Mace Neufeld Productions, Paramount Classics, Samson Films, Seven Arts Pictures, Zephyr Films
Перевод: Профессиональный многоголосый

Режиссер: Дэвид МакКензи
В ролях: Наташа Ричардсон, Мартон Чокаш, Джуди Парфитт, Хью Бонневилль, Гас Льюис, Иэн МакКеллен, Джосс Экленд, Ванда Вентхам, Сара Тьюрстон, Алвайн Тейлор, Мария Аиткен, Хэйзел Дуглас, Шон Харрис, Ридиан Джонс, Сьюзи Госслинг Валерио, Патрик МакГрат, Анна Кивни, Роберт Уиллокс, Энди Де Ла Тур, Ник Чадвин, Джонатан Бридж, Вероника Фэйрхарст, Питер Йэтс

О фильме: Действие фильма происходит в Англии 50-х годов. Жена главного врача сумасшедшего дома влюбляется в одного из пациентов. Их чувства, как весенняя гроза, не разбирают дорог, превращаясь в ураган любви и страстей. И никто не знает, что там, за поворотом больничного коридора - любовь или бездна...



Качество: WEB-DL 1080p
Формат: MKV
Видео: MPEG-4 AVC, 13,2 Мбит/сек, 1920x800, 23,976 кадра/сек
Аудио #1: AC3, 2 ch, 192 Кбит/сек | Русский, профессиональный (многоголосый закадровый) R5
Аудио #2: AC3, 2 ch, 192 Кбит/сек | Русский, профессиональный (многоголосый закадровый)
Аудио #3: EAC3, 6 ch, 640 Кбит/сек | Английский, оригинал
Субтитры: Русские, английские
Навигация по главам: Есть

Релиз от:
Общее
Уникальный идентификатор : 189818301128849570188807905184558069762 (0x8ECDACCDB240DA1FB08427B4F077B802)
Полное имя : Безумие.2005.WEB-DL.1080p.mkv
Формат : Matroska
Версия формата : Version 2
Размер файла : 10,1 Гбайт
Продолжительность : 1 ч. 39 м.
Режим общего битрейта : Переменный
Общий поток : 14,5 Мбит/сек
Дата кодирования : UTC 2018-05-06 21:34:14
Программа кодирования : mkvmerge v5.8.0 ('No Sleep / Pillow') built on Sep 2 2012 15:37:04
Библиотека кодирования : libebml v1.2.3 + libmatroska v1.3.0

Видео
Идентификатор : 1
Формат : AVC
Формат/Информация : Advanced Video Codec
Профиль формата : High@L4
Настройки формата : CABAC / 4 Ref Frames
Параметр CABAC формата : Да
Параметр RefFrames формата : 4 кадра
Идентификатор кодека : V_MPEG4/ISO/AVC
Продолжительность : 1 ч. 39 м.
Вид битрейта : Переменный
Битрейт : 13,2 Мбит/сек
Максимальный битрейт : 15,0 Мбит/сек
Ширина : 1920 пикселей
Высота : 800 пикселей
Соотношение сторон : 2,40:1
Режим частоты кадров : Постоянный
Частота кадров : 23,976 (24000/1001) кадра/сек
Цветовое пространство : YUV
Субдискретизация насыщенности : 4:2:0
Битовая глубина : 8 бит
Тип развёртки : Прогрессивная
Бит/(Пиксели*Кадры) : 0.358
Размер потока : 9,20 Гбайт (91%)
Язык : English
Default : Да
Forced : Нет
Цветовой диапазон : Limited
Основные цвета : BT.709
Характеристики трансфера : BT.709
Коэффициенты матрицы : BT.709

Аудио #1
Идентификатор : 2
Формат : AC-3
Формат/Информация : Audio Coding 3
Идентификатор кодека : A_AC3
Продолжительность : 1 ч. 39 м.
Вид битрейта : Постоянный
Битрейт : 192 Кбит/сек
Каналы : 2 канала
Расположение каналов : Front: L R
Частота : 48,0 КГц
Частота кадров : 31,250 кадров/сек (1536 SPF)
Битовая глубина : 16 бит
Метод сжатия : С потерями
Размер потока : 137 Мбайт (1%)
Заголовок : MVO | R5
Язык : Russian
По умолчанию : Да
Принудительно : Нет

Аудио #2
Идентификатор : 3
Формат : AC-3
Формат/Информация : Audio Coding 3
Идентификатор кодека : A_AC3
Продолжительность : 1 ч. 39 м.
Вид битрейта : Постоянный
Битрейт : 192 Кбит/сек
Каналы : 2 канала
Расположение каналов : Front: L R
Частота : 48,0 КГц
Частота кадров : 31,250 кадров/сек (1536 SPF)
Битовая глубина : 16 бит
Метод сжатия : С потерями
Размер потока : 137 Мбайт (1%)
Заголовок : MVO
Язык : Russian
По умолчанию : Нет
Принудительно : Нет

Аудио #3
Идентификатор : 4
Формат : E-AC-3
Формат/Информация : Enhanced Audio Coding 3
Идентификатор кодека : A_EAC3
Продолжительность : 1 ч. 39 м.
Вид битрейта : Постоянный
Битрейт : 640 Кбит/сек
Каналы : 6 каналов
Расположение каналов : Front: L C R, Side: L R, LFE
Частота : 48,0 КГц
Частота кадров : 187,500 кадров/сек (256 SPF)
Метод сжатия : С потерями
Размер потока : 457 Мбайт (4%)
Заголовок : Original
Язык : English
По умолчанию : Нет
Принудительно : Нет

Текст #1
Идентификатор : 5
Формат : UTF-8
Идентификатор кодека : S_TEXT/UTF8
Идентификатор кодека/Информация : UTF-8 Plain Text
Язык : Russian
По умолчанию : Нет
Принудительно : Нет

Текст #2
Идентификатор : 6
Формат : UTF-8
Идентификатор кодека : S_TEXT/UTF8
Идентификатор кодека/Информация : UTF-8 Plain Text
Язык : English
По умолчанию : Нет
Принудительно : Нет

Текст #3
Идентификатор : 7
Формат : UTF-8
Идентификатор кодека : S_TEXT/UTF8
Идентификатор кодека/Информация : UTF-8 Plain Text
Заголовок : SDH
Язык : English
По умолчанию : Нет
Принудительно : Нет

Меню
00:00:00.000 : en:Chapter 01
00:06:20.882 : en:Chapter 02
00:11:44.038 : en:Chapter 03
00:14:30.872 : en:Chapter 04
00:17:25.880 : en:Chapter 05
00:21:48.142 : en:Chapter 06
00:23:21.235 : en:Chapter 07
00:26:23.083 : en:Chapter 08
00:29:22.629 : en:Chapter 09
00:33:47.394 : en:Chapter 10
00:38:08.121 : en:Chapter 11
00:41:34.360 : en:Chapter 12
00:45:08.708 : en:Chapter 13
00:49:31.971 : en:Chapter 14
00:54:01.907 : en:Chapter 15
01:00:00.265 : en:Chapter 16
01:06:01.459 : en:Chapter 17
01:12:59.710 : en:Chapter 18
01:18:22.366 : en:Chapter 19
01:24:52.256 : en:Chapter 20
01:27:51.301 : en:Chapter 21
01:33:18.428 : en:Chapter 22
• Исходник видео WEB-DL Amazon.
pb.wtf



Скачать Безумие через торрент http://d.radikal.ru/d21/1805/ce/6aa5f3b6b129.png Скачать фильм Безумие через торрент бесплантно в хорошем качестве О фильме: Действие фильма происходит в Англии 50-х годов. Жена главного врача сумасшедшего дома влюбляется в одного из пациентов. Их ... 10 10 2
Info! Золотая раздача, скачанное не засчитывается.
Торрент: Зарегистрирован [2019-07-28 09:32] · скачан: 21 раз
Статус: √ проверено
Размер: 10.12 GB
Как cкачать? Как скачать Безумие через торрент | qTorrent

28-11-2019 20:33  

Отключить всю рекламу на сайте

    Дорогой пользователь! Огромная просьба, поблагодарите релизера, оцените раздачу и оставьте свои комментарий, если Вы скачали Безумие через торрент бесплатно! Внесите свою лепту в развитие PiratBit!
    Комментировать посты могут только пользователи прошедшие не сложную регистрацию
    Показать сообщения:    

    Безумие через торрент
    Скачать бесплатно Безумие
    Безумие скачать торрент
    Безумие смотреть онлайн
    Cкачать фильм Безумие бесплатно
    Безумие скачать торрент в хорошем качестве
    Безумие смотреть онлайн бесплатно в хорошем качестве


    Вы не можете начинать темы
    Вы не можете отвечать на сообщения
    Вы не можете редактировать свои сообщения
    Вы не можете удалять свои сообщения
    Вы не можете голосовать в опросах
    Вы не можете прикреплять файлы к сообщениям
    Вы можете скачивать файлы