Всегда рабочее зеркало без VPN и Proxy просто перед .vidak.icu напиши любое слово или цифру, Пример http://klyx.vidak.icu

MVO

2 сезон

1 сезон

1

1 сезон

iTunes

2 сезон

13

1 сезон

Deluxe

pack

Рекомендуем

Пиратка

30

ВАЖНО

RePack

MK11

RePack

jed

RePack

fifa19

RePack

RDR2

RePack

NEED FOR SPEED™ PAYBACK

Кинопоиск HD

6 сезон

 Острые козырьки 6 сезон

Все сериалы

все сериалы на PB.wtf

RePack

FAR CRY 5

Anonymous, нам критически не хватает 5601 руб. на оплату серверов и переферии за Апрель, помоги нам пожалуйста, вся надежда только на тебя. В благодарность мы отключим тебе всю рекламу на сайте!

×
  
Magnet ссылка

Зловещие мертвецы / The Evil Dead (Сэм Рэйми) [1981, ужасы, BDRemux 1080p] [Remastered] [Open Matte] MVO + 2xDVO + 6xAVO pb.wtf

Зловещие мертвецы через торрент pb.wtf

Размер: 21.6 GB | Добавлен: 2 года 9 мес. назад | Торрент скачан:10 раз
Смотреть онлайн Зловещие мертвецы | Скачать    Ребята, помогите собрать деньги на оплату серверов!!!

28-07-2019 13:58 Зловещие мертвецы Скачать торрент  

Зловещие мертвецы / The Evil Dead«The Ultimate Experience In Grueling Terror»
Год выпуска: 1981
Страна: США
Жанр: ужасы
Продолжительность: 01:25:26
Перевод: Профессиональный многоголосый, профессиональный двухголосый, авторский
Субтитры: русские, английские, английские (SDH)
Режиссер: Сэм Рэйми
В ролях:

Брюс Кэмпбелл (Ashley «Ash» J. Williams), Эллен Сэндвайсс (Cheryl), Ричард ДеМэннинкор (Scott), Бетси Бейкер (Linda), Тереза Тилли (Shelly), Филип А. Гиллис (Fake Shemp), Дороти Тейперт (Fake Shemp), Шерил Гаттридж (Fake Shemp), Барбара Кэри (Fake Shemp), Дэвид Хортон (Fake Shemp), Уэндал Томас (Fake Shemp), Дон Лонг (Fake Shemp)
Описание:
Молодые люди снимают на выходные загородный дом. Находится он в непролазной глуши, выглядит мрачно, а кругом - ни души. Аренда стоит копейки, но не потому, что он того и гляди развалится...
Рейтинг:

MPAA: NC-17 - Лицам до 17 лет просмотр запрещен
Качество: BDRemux 1080p
Формат: MKV
Видео: MPEG-4 AVC, 29.0 Мбит/с, 1920x1080
Аудио 1: Russian / Dolby Digital Audio / 5.1 / 48 kHz / 384 kbps / DN -4dB |MVO (Киномания)|
Аудио 2: Russian / Dolby Digital Audio / 5.1 / 48 kHz / 448 kbps / DN -4dB |DVO|
Аудио 3: Russian / DTS-HD Master Audio / 5.1 / 48 kHz / ~1455 kbps / 16-bit (DTS Core: 5.1 / 48 kHz / 768 kbps / 16-bit) |DVO (П. Гланц и И. Королёва)|
Аудио 4: Russian / DTS-HD Master Audio / 5.1 / 48 kHz / ~1455 kbps / 16-bit (DTS Core: 5.1 / 48 kHz / 768 kbps / 16-bit) |AVO (А.Гаврилов)|
Аудио 5: Russian / DTS-HD Master Audio / 5.1 / 48 kHz / ~1455 kbps / 16-bit (DTS Core: 5.1 / 48 kHz / 768 kbps / 16-bit) |AVO (Д.Пучков)|
Аудио 6: Russian / DTS-HD Master Audio / 5.1 / 48 kHz / ~1455 kbps / 16-bit (DTS Core: 5.1 / 48 kHz / 768 kbps / 16-bit) |AVO (А.Костюкевич)|
Аудио 7: Russian / Dolby Surround encoded / 2.0 / 48 kHz / 192 kbps / DN -4dB |AVO (Л.Володарский)|
Аудио 8: Russian / Dolby Surround encoded / 2.0 / 48 kHz / 320 kbps / DN -4dB |AVO (В.Горчаков)|
Аудио 9: Russian / Dolby Surround encoded / 2.0 / 48 kHz / 192 kbps / DN -4dB |AVO (А.Дольский)|
Аудио 10: English / DTS-HD Master Audio / 5.1 / 48 kHz / 1785 kbps / 16-bit (DTS Core: 5.1 / 48 kHz / 1509 kbps / 16-bit) |Оригинал|
Аудио 11: English / Dolby Digital Audio / 2.0 / 48 kHz / 192 kbps |Commentary with director Sam Raimi, Robert Tapert and Bruce Campbell|
Навигация по главам: есть

General
Unique ID : 245059641431782474793660135821894148116 (0xB85CC5292B0F25BFB61FCA7CAE86E014)
Complete name : D:\REMUX\The.Evil.Dead.1981.OAR.BD-Remux.1080p.mkv
Format : Matroska
Format version : Version 4 / Version 2
File size : 21.6 GiB
Duration : 1h 25mn
Overall bit rate mode : Variable
Overall bit rate : 36.2 Mbps
Encoded date : UTC 2019-07-28 07:48:19
Writing application : mkvmerge v6.1.0 ('Old Devil') built on Mar 2 2013 14:32:37
Writing library : libebml v1.3.0 + libmatroska v1.4.0

Video
ID : 1
Format : AVC
Format/Info : Advanced Video Codec
Format profile : High@L4.1
Format settings, CABAC : Yes
Format settings, ReFrames : 2 frames
Format settings, GOP : M=1, N=10
Codec ID : V_MPEG4/ISO/AVC
Duration : 1h 25mn
Bit rate mode : Variable
Bit rate : 29.0 Mbps
Width : 1 920 pixels
Height : 1 080 pixels
Display aspect ratio : 16:9
Frame rate : 23.976 fps
Color space : YUV
Chroma subsampling : 4:2:0
Bit depth : 8 bits
Scan type : Progressive
Bits/(Pixel*Frame) : 0.582
Stream size : 17.3 GiB (80%)
Language : English
Default : Yes
Forced : No

Audio #1
ID : 2
Format : AC-3
Format/Info : Audio Coding 3
Mode extension : CM (complete main)
Codec ID : A_AC3
Duration : 1h 25mn
Bit rate mode : Constant
Bit rate : 384 Kbps
Channel(s) : 6 channels
Channel positions : Front: L C R, Side: L R, LFE
Sampling rate : 48.0 KHz
Bit depth : 16 bits
Compression mode : Lossy
Stream size : 235 MiB (1%)
Title : MVO Киномания
Language : Russian
Default : Yes
Forced : No

Audio #2
ID : 3
Format : AC-3
Format/Info : Audio Coding 3
Mode extension : CM (complete main)
Codec ID : A_AC3
Duration : 1h 25mn
Bit rate mode : Constant
Bit rate : 448 Kbps
Channel(s) : 6 channels
Channel positions : Front: L C R, Side: L R, LFE
Sampling rate : 48.0 KHz
Bit depth : 16 bits
Compression mode : Lossy
Stream size : 274 MiB (1%)
Title : DVO
Language : Russian
Default : No
Forced : No

Audio #3
ID : 4
Format : DTS
Format/Info : Digital Theater Systems
Format profile : MA / Core
Codec ID : A_DTS
Duration : 1h 25mn
Bit rate mode : Variable
Bit rate : 806 Kbps / 755 Kbps
Channel(s) : 6 channels
Channel positions : Front: L C R, Side: L R, LFE
Sampling rate : 48.0 KHz
Bit depth : 16 bits
Compression mode : Lossless / Lossy
Title : DVO Гланц и Королёва
Language : Russian
Default : No
Forced : No

Audio #4
ID : 5
Format : DTS
Format/Info : Digital Theater Systems
Format profile : MA / Core
Codec ID : A_DTS
Duration : 1h 25mn
Bit rate mode : Variable
Bit rate : 806 Kbps / 755 Kbps
Channel(s) : 6 channels
Channel positions : Front: L C R, Side: L R, LFE
Sampling rate : 48.0 KHz
Bit depth : 16 bits
Compression mode : Lossless / Lossy
Title : AVO Гаврилов
Language : Russian
Default : No
Forced : No

Audio #5
ID : 6
Format : DTS
Format/Info : Digital Theater Systems
Format profile : MA / Core
Codec ID : A_DTS
Duration : 1h 25mn
Bit rate mode : Variable
Bit rate : 806 Kbps / 755 Kbps
Channel(s) : 6 channels
Channel positions : Front: L C R, Side: L R, LFE
Sampling rate : 48.0 KHz
Bit depth : 16 bits
Compression mode : Lossless / Lossy
Title : AVO Пучков (Гоблин)
Language : Russian
Default : No
Forced : No

Audio #6
ID : 7
Format : DTS
Format/Info : Digital Theater Systems
Format profile : MA / Core
Codec ID : A_DTS
Duration : 1h 25mn
Bit rate mode : Variable
Bit rate : 806 Kbps / 755 Kbps
Channel(s) : 6 channels
Channel positions : Front: L C R, Side: L R, LFE
Sampling rate : 48.0 KHz
Bit depth : 16 bits
Compression mode : Lossless / Lossy
Title : AVO Костюкевич
Language : Russian
Default : No
Forced : No

Audio #7
ID : 8
Format : AC-3
Format/Info : Audio Coding 3
Format profile : Dolby Digital
Mode extension : CM (complete main)
Codec ID : A_AC3
Duration : 1h 25mn
Bit rate mode : Constant
Bit rate : 192 Kbps
Channel(s) : 2 channels
Channel positions : Front: L R
Sampling rate : 48.0 KHz
Bit depth : 16 bits
Compression mode : Lossy
Stream size : 117 MiB (1%)
Title : AVO Володарский
Language : Russian
Default : No
Forced : No

Audio #8
ID : 9
Format : AC-3
Format/Info : Audio Coding 3
Mode extension : CM (complete main)
Codec ID : A_AC3
Duration : 1h 25mn
Bit rate mode : Constant
Bit rate : 320 Kbps
Channel(s) : 2 channels
Channel positions : Front: L R
Sampling rate : 48.0 KHz
Bit depth : 16 bits
Compression mode : Lossy
Stream size : 196 MiB (1%)
Title : AVO Горчаков
Language : Russian
Default : No
Forced : No

Audio #9
ID : 10
Format : AC-3
Format/Info : Audio Coding 3
Format profile : Dolby Digital
Mode extension : CM (complete main)
Codec ID : A_AC3
Duration : 1h 25mn
Bit rate mode : Constant
Bit rate : 192 Kbps
Channel(s) : 2 channels
Channel positions : Front: L R
Sampling rate : 48.0 KHz
Bit depth : 16 bits
Compression mode : Lossy
Stream size : 117 MiB (1%)
Title : AVO Дольский
Language : Russian
Default : No
Forced : No

Audio #10
ID : 11
Format : DTS
Format/Info : Digital Theater Systems
Format profile : MA / Core
Codec ID : A_DTS
Duration : 1h 25mn
Bit rate mode : Variable
Bit rate : 1 561 Kbps / 1 510 Kbps
Channel(s) : 6 channels
Channel positions : Front: L C R, Side: L R, LFE
Sampling rate : 48.0 KHz
Bit depth : 16 bits
Compression mode : Lossless / Lossy
Language : English
Default : No
Forced : No

Audio #11
ID : 12
Format : AC-3
Format/Info : Audio Coding 3
Mode extension : CM (complete main)
Codec ID : A_AC3
Duration : 1h 25mn
Bit rate mode : Constant
Bit rate : 192 Kbps
Channel(s) : 2 channels
Channel positions : Front: L R
Sampling rate : 48.0 KHz
Bit depth : 16 bits
Compression mode : Lossy
Stream size : 117 MiB (1%)
Title : Комментарии
Language : English
Default : No
Forced : No

Text #1
ID : 13
Format : UTF-8
Codec ID : S_TEXT/UTF8
Codec ID/Info : UTF-8 Plain Text
Language : Russian
Default : No
Forced : No

Text #2
ID : 14
Format : UTF-8
Codec ID : S_TEXT/UTF8
Codec ID/Info : UTF-8 Plain Text
Title : 1
Language : English
Default : No
Forced : No

Text #3
ID : 15
Format : UTF-8
Codec ID : S_TEXT/UTF8
Codec ID/Info : UTF-8 Plain Text
Title : 2
Language : English
Default : No
Forced : No

Menu
00:00:00.000 : :Chapter 1
00:03:24.454 : :Chapter 2
00:10:17.241 : :Chapter 3
00:16:36.954 : :Chapter 4
00:22:05.032 : :Chapter 5
00:28:33.586 : :Chapter 6
00:32:17.560 : :Chapter 7
00:38:40.568 : :Chapter 8
00:43:09.628 : :Chapter 9
00:49:04.232 : :Chapter 10
00:55:42.630 : :Chapter 11
01:01:02.450 : :Chapter 12
01:03:43.945 : :Chapter 13
01:09:13.399 : :Chapter 14
01:14:32.176 : :Chapter 15
01:20:32.994 : :Chapter 16
pb.wtf



Скачать Зловещие мертвецы через торрент https://b.radikal.ru/b27/1907/86/b96a87430102.png Скачать, смотреть онлайн Зловещие мертвецы бесплантно в хорошем качестве Описание: Молодые люди снимают на выходные загородный дом. Находится он в непролазной глуши, выглядит мрачно, а кругом - ни души. Аренда ... 10 10 5
Торрент: Зарегистрирован [2019-07-28 13:58] · скачан: 10 раз
Статус: √ проверено
Размер: 21.6 GB
Как cкачать? Как скачать Зловещие мертвецы через торрент | UTorrent

% Раздел Тема Автор DL S | L
Ultra HD (UHD: 2K, 4K, 8K) — видео сверхвысокой чёткости [ 47.48 GB ] Зловещие мертвецы / The Evil Dead [1981 UHD BDRemux 2160p] MVO + 2xDVO + 5xAVO sheker187 Скачать
1 | 0

28-11-2019 20:33  

Отключить всю рекламу на сайте

28-07-2019 14:40 Зловещие мертвецы Скачать торрент  

ммммммммм, молодость, шикарный фильм!!!!pb.wtf



    Дорогой пользователь! Огромная просьба, поблагодарите релизера, оцените раздачу и оставьте свои комментарий, если Вы скачали Зловещие мертвецы через торрент бесплатно!
    Комментировать посты могут только пользователи прошедшие не сложную регистрацию
    Показать сообщения:    

    Зловещие мертвецы через торрент
    Скачать бесплатно Зловещие мертвецы
    Зловещие мертвецы скачать торрент
    Зловещие мертвецы смотреть онлайн
    Cкачать фильм Зловещие мертвецы бесплатно
    Зловещие мертвецы скачать торрент в хорошем качестве
    Зловещие мертвецы смотреть онлайн бесплатно в хорошем качестве


    Вы не можете начинать темы
    Вы не можете отвечать на сообщения
    Вы не можете редактировать свои сообщения
    Вы не можете удалять свои сообщения
    Вы не можете голосовать в опросах
    Вы не можете прикреплять файлы к сообщениям
    Вы можете скачивать файлы