2 сезон

iTunes

MVO

1

2 сезон

iTunes

iTunes

1 сезон

RePack

30

Новинка

ВАЖНО

ИГРА 18+

pack

RePack

MK11
pack

Легкие деньги

RePack

jed

RePack

fifa19

RePack

RDR2

RePack

NEED FOR SPEED™ PAYBACK

4 сезон

9 сезон

Бесстыжие 9 сезон

Все сериалы

все сериалы на PB.wtf

RePack

FAR CRY 5

Anonymous, добрый вечер, мы не успеваем собрать деньги на оплату серверов за декабрь и январь, помогите нам пожалуйста в это трудное время. В качестве благодарности мы отключим Вам всю рекламу на сайте (укажите свой ник в строку Ваше имя)!

×
  
Magnet ссылка

Пенниуорт / Pennyworth / Сезон: 1 / Серии: 1-10 из 10 (Роб Бэйли, Билл Иглз, Дэнни Кэннон) [2019, Боевик, драма, криминал, WEB-DL 1080p] MVO [NewStudio] pb.wtf

Пенниуорт через торрент pb.wtf

Размер: 30.48 GB | Добавлен: 1 год 3 мес. назад | Торрент скачан:5 раз
Скачать  

28-07-2019 17:01 Пенниуорт Скачать торрент  

Пенниуорт / Pennyworth
Год выпуска: 2019
Страна: США
Жанр: Боевик, драма, криминал
Продолжительность: ~ 01:12:00
Перевод: Профессиональный (многоголосый) | NewStudio
Субтитры: отсутствуют

Режиссер: Роб Бэйли, Билл Иглз, Дэнни Кэннон

rating


В ролях
: Джек Бэннон, Палома Фэйт, Бен Элдридж, Джейсон Флеминг, Хэйнсли Ллойд Беннетт, Дороти Эткинсон, Эмма Коррин, Райан Флетчер, Иан Палстон-Дэвис, Ники Виккери и другие.

Описание: Альфред Пенниуорт — отставной офицер британского спецназа, который создаёт в Лондоне собственное охранное предприятие. Одним из его первых клиентов становится миллионер Томас Уэйн, отец будущего Бэтмена.

Качество: WEB-DL 1080p
Формат: MKV

Видео: ~7000 kb/s, 1920x960
Аудио: Русский: AC3, 6 ch, 448 kb/s
скриншот   скриншот   скриншот   скриншот   скриншот  
скриншот  

Общее
Уникальный идентификатор : 90305931783749653835114873177738544512 (0x43F04A318005F84485F2B53A279F8580)
Полное имя : D:\Pennyworth.S01.1080p.NewStudio\Pennyworth.s01e01.WEBDL.1080p.NewStudio.TV.mkv
Формат : Matroska
Версия формата : Version 4 / Version 2
Размер файла : 3,69 Гбайт
Продолжительность : 1 ч. 11 м.
Режим общего битрейта : Переменный
Общий поток : 7372 Кбит/сек
Дата кодирования : UTC 2019-07-27 22:42:59
Программа кодирования : TMPGEnc Video Mastering Works 7 Version 7.0.11.12
Библиотека кодирования : TMPGEnc Video Mastering Works 7 Version 7.0.11.12

Видео
Идентификатор : 1
Формат : AVC
Формат/Информация : Advanced Video Codec
Профиль формата : High@L4.1
Параметр CABAC формата : Да
Параметр RefFrames формата : 4 кадра
Идентификатор кодека : V_MPEG4/ISO/AVC
Продолжительность : 1 ч. 11 м.
Вид битрейта : Переменный
Битрейт : 6778 Кбит/сек
Максимальный битрейт : 39,6 Мбит/сек
Ширина : 1920 пикселей
Высота : 960 пикселей
Соотношение сторон : 2,000
Режим частоты кадров : Постоянный
Частота кадров : 23,976 (24000/1001) кадра/сек
Стандарт вещания : Component
Цветовое пространство : YUV
Субдискретизация насыщенности : 4:2:0
Битовая глубина : 8 бит
Тип развёртки : Прогрессивная
Бит/(Пиксели*Кадры) : 0.153
Размер потока : 3,39 Гбайт (92%)
Default : Да
Forced : Нет
Цветовой диапазон : Limited
Основные цвета : BT.709
Характеристики трансфера : BT.709
Коэффициенты матрицы : BT.709

Аудио
Идентификатор : 2
Формат : AC-3
Формат/Информация : Audio Coding 3
Расширение режима : CM (complete main)
Параметр Endianness формата : Big
Идентификатор кодека : A_AC3
Продолжительность : 1 ч. 11 м.
Вид битрейта : Постоянный
Битрейт : 448 Кбит/сек
Каналы : 6 каналов
Расположение каналов : Front: L C R, Side: L R, LFE
Частота : 48,0 КГц
Частота кадров : 31,250 кадров/сек (1536 spf)
Метод сжатия : С потерями
Размер потока : 230 Мбайт (6%)
Default : Да
Forced : Нет

Когда раздача ведётся путём добавления новых серий, при каждом добавлении создётся новый торрент. Чтобы начать докачку новой серии, пользователям необходимо сделать следующее:
(1) остановить скачивание,
(2) удалить старый торрент у себя из клиента (старые серии удалять не надо),
(3) скачать новый торрент и запустить его у себя в клиенте вместо старого, при этом указать клиенту путь в старую папку, куда и должно происходить скачивание новых серий.
Ваш клиент при этом должен произвести хеширование (проверку) старой папки (если не производит сам - помогите ему сделать это), и будет докачивать только те серии, которых у вас ещё нет. Старые серии при этом не удаляются, а продолжают раздаваться!
Eсли вы уже удалили старые серии, то предотвратить повторную закачку старых серий можно, отжав галочку в соответсвующих местах при запуске нового торрента. По возможности, желательно не удалять старые серии как можно дольше, чтобы релизер не столько продолжал раздавать старые серии, а смог сконцентрироваться на новых.
pb.wtf



Скачать Пенниуорт через торрент http://pic1.kartinco.top/images/12/cdq1i.jpg Скачать фильм Пенниуорт через торрент бесплантно в хорошем качестве Описание: Альфред Пенниуорт — отставной офицер британского спецназа, который создаёт в Лондоне собственное охранное предприятие. Одним из ... 10 10 4
Торрент: Зарегистрирован [2019-10-05 05:36] · скачан: 5 раз
Статус: √ проверено
Размер: 30.48 GB
Как cкачать? Как скачать Пенниуорт через торрент | UTorrent

% Раздел Тема Автор DL S | L
Зарубежные сериалы [ 2.78 GB ] Пенниуорт / Pennyworth / Сезон: 2 / Серии: 1-4 из 10 [2020 WEB-DLRip] MVO [TVShows] bober100 Скачать
4 | 1
Зарубежные сериалы [ 44.48 GB ] Пенниуорт / Pennyworth / Сезон: 1-2 / Серии: 1-14 из 20 [2019-2020 WEB-DL 1080p] DUB [Lucky Production] bober100 Скачать
2 | 0
Зарубежные сериалы [ 719 MB ] Пенниуорт / Pennyworth / Сезон: 2 / Серии: 1- из 10 [2020 WEB-DLRip] MVO [LostFilm] bober100 Скачать
1 | 0
Зарубежные сериалы [ 7.06 GB ] Пенниуорт / Pennyworth / Сезон: 2 / Серии: 1-4 из 10 [2020 WEB-DL 720p] [MVO] killermax2013 Скачать
3 | 1
Зарубежные сериалы [ 2.96 GB ] Пенниуорт / Pennyworth / Сезон: 2 / Серии: 1-4 из 10 [2020 WEB-DL 720p] + 2x[MVO] killermax2013 Скачать
4 | 0
Зарубежные сериалы [ 21.89 GB ] Пенниуорт / Pennyworth / Сезон: 2 / Серии: 1-4 из 10 [2020 WEB-DL 1080p] DUB [Lucky Production] +3xMVO [Lostfilm HDRezka Studio TVShows] bober100 Скачать
1 | 0
Зарубежные сериалы [ 2.84 GB ] Пенниуорт / Pennyworth / Сезон: 2 / Серии: 1-4 из 10 [2020 WEB-DLRip] killermax2013 Скачать
1 | 0

28-11-2019 20:33  

Отключить всю рекламу на сайте

24-11-2020 14:49 Пенниуорт Скачать торрент  

пожалуйста станьте на раздачу! а то как мёртв торрент вообще!pb.wtf



    Дорогой пользователь! Огромная просьба, поблагодарите релизера, оцените раздачу и оставьте свои комментарий, если Вы скачали Пенниуорт через торрент бесплатно! Внесите свою лепту в развитие PiratBit!
    Комментировать посты могут только пользователи прошедшие не сложную регистрацию
    Показать сообщения:    

    Пенниуорт через торрент
    Скачать бесплатно Пенниуорт
    Пенниуорт скачать торрент
    Пенниуорт смотреть онлайн
    Cкачать фильм Пенниуорт бесплатно
    Пенниуорт скачать торрент в хорошем качестве
    Пенниуорт смотреть онлайн бесплатно в хорошем качестве


    Вы не можете начинать темы
    Вы не можете отвечать на сообщения
    Вы не можете редактировать свои сообщения
    Вы не можете удалять свои сообщения
    Вы не можете голосовать в опросах
    Вы не можете прикреплять файлы к сообщениям
    Вы можете скачивать файлы