Ссылка на приватное зеркало нашего сайта всего за 1$. Внимание количество ограничено!!!

2 сезон

iTunes

1 сезон

1

iTunes

iTunes

iTunes

1 сезон

RePack

30

ИГРА 18+

pack

ВАЖНО

!!Акция!!

Alien_RageХит недели

RePack

MK11
pack

Забери бонус

RePack

jed

!!Акция!!

Alien_Rage

RePack

fifa19

RePack

Assassins Creed: Odyssey

RePack

NEED FOR SPEED™ PAYBACK

4 сезон

9 сезон

Бесстыжие 9 сезон

Все сериалы

все сериалы на PB.wtf

RePack

FAR CRY 5
  

Битва за Землю / Captive State (Руперт Уайатт) [2019, фантастика, триллер, UHD WEB-DL 2160p] DUB [iTunes] + MVO [CВ Студия] pb.wtf

Битва за Землю через торрент pb.wtf

Размер: 19.39 GB | Добавлен: 1 год 2 мес. назад | Торрент скачан:135 раз
Скачать  

28-07-2019 17:56 Битва за Землю Скачать торрент  

Битва за Землю / Captive State««Это больше не наша планета»»

Год выпуска: 2019
Страна: США
Жанр: фантастика, триллер
Продолжительность: 01:49:34
Перевод: Дублированный, профессиональный многоголосый
Субтитры: Русские, английские
Режиссер: Руперт Уайатт
В ролях:

Джон Гудман (William Mulligan), Вера Фармига (Jane Doe), Эштон Сандерс (Gabriel Drummond), Джонатан Мэйджерс (Rafe Drummond), Кевин Данн (Commissioner Eugene Igoe), Джеймс Рэнсон (Patrick Ellison), Алан Рак (Charles Rittenhouse), Мадлен Брюэр (Rula), Машин Ган Келли (Jurgis), Кевин Дж. О’Коннор (Kermode), Бен Дэниелс (Daniel), Кэйтлин Эвальд (Anita)
Описание:
Мы всегда знали, что не одни в этом мире. Мы отправляли сигналы в надежде получить ответ. И нас услышали. За считанные часы пришельцы захватили Землю и установили свое правительство. Сотовая связь и интернет отключены, электронные библиотеки уничтожены. Большой инопланетный брат следит за каждым, его дроны-охотники днем и ночью патрулируют улицы новой Земли. Мы - последние, те, у кого нет имени, невидимые для системы. Сегодня мы вернем нашу планету.
Рейтинг:

MPAA: PG-13 - Детям до 13 лет просмотр не желателен
Качество: UHD WEB-DL 2160p
Формат: MKV
Видео: HEVC HDR, 24.1 Mбит/с, 3840x2160, 23.976 кадр/с, 10 Бит
Аудио 1: Russian AC3 / 5.1 / 48 kHz / 384 kbps |Dub, iTunes|
Аудио 2: Russian AC3 / 2.0 / 48 kHz / 192 kbps |MVO,CВ Студия|
Аудио 3: English E-AC3 / 5.1 / 48 kHz / 640 kbps |original|
Навигация по главам: есть

Общее
Уникальный идентификатор : 94482167773336074205432030604504758751 (0x47149A8659C6109067569EEAB6EE79DF)
Полное имя : H:\UHD\Битва за Землю.2019.WEB-DL.2160p.mkv
Формат : Matroska
Версия формата : Version 4
Размер файла : 19,4 Гбайт
Продолжительность : 1 ч. 49 м.
Общий поток : 25,3 Мбит/сек
Дата кодирования : UTC 2019-07-28 13:19:15
Программа кодирования : mkvmerge v35.0.0 ('All The Love In The World') 64-bit
Библиотека кодирования : libebml v1.3.9 + libmatroska v1.5.2
Attachments : poster.jpg

Видео
Идентификатор : 1
Формат : HEVC
Формат/Информация : High Efficiency Video Coding
Профиль формата : Main 10@L5@High
HDR_Format/String : SMPTE ST 2086, HDR10 compatible
Идентификатор кодека : V_MPEGH/ISO/HEVC
Продолжительность : 1 ч. 49 м.
Битрейт : 24,1 Мбит/сек
Ширина : 3840 пикселей
Высота : 1604 пикселя
Высота оригинала : 2160 пикселей
Соотношение сторон : 16:9
Режим частоты кадров : Постоянный
Частота кадров : 23,976 (24000/1001) кадра/сек
Цветовое пространство : YUV
Субдискретизация насыщенности : 4:2:0 (Type 2)
Битовая глубина : 10 бит
Бит/(Пиксели*Кадры) : 0.163
Размер потока : 18,5 Гбайт (95%)
Default : Да
Forced : Нет
Цветовой диапазон : Limited
Основные цвета : BT.2020
Характеристики трансфера : PQ
Коэффициенты матрицы : BT.2020 non-constant
MasteringDisplay_ColorPrimaries : BT.2020
MasteringDisplay_Luminance : min: 0.0050 cd/m2, max: 1000 cd/m2
MaxCLL : 294 cd/m2
MaxFALL : 64 cd/m2

Аудио #1
Идентификатор : 2
Формат : AC-3
Формат/Информация : Audio Coding 3
Коммерческое название : Dolby Digital
Идентификатор кодека : A_AC3
Продолжительность : 1 ч. 49 м.
Вид битрейта : Постоянный
Битрейт : 384 Кбит/сек
Каналы : 6 каналов
ChannelLayout : L R C LFE Ls Rs
Частота : 48,0 КГц
Частота кадров : 31,250 кадров/сек (1536 SPF)
Битовая глубина : 16 бит
Метод сжатия : С потерями
Размер потока : 301 Мбайт (2%)
Заголовок : Dub, iTunes
Язык : Russian
ServiceKind/String : Complete Main
Default : Да
Forced : Нет

Аудио #2
Идентификатор : 3
Формат : AC-3
Формат/Информация : Audio Coding 3
Коммерческое название : Dolby Digital
Идентификатор кодека : A_AC3
Продолжительность : 1 ч. 49 м.
Вид битрейта : Постоянный
Битрейт : 192 Кбит/сек
Каналы : 2 канала
ChannelLayout : L R
Частота : 48,0 КГц
Частота кадров : 31,250 кадров/сек (1536 SPF)
Битовая глубина : 16 бит
Метод сжатия : С потерями
Размер потока : 150 Мбайт (1%)
Заголовок : MVO, CВ Студия
Язык : Russian
ServiceKind/String : Complete Main
Default : Нет
Forced : Нет

Аудио #3
Идентификатор : 4
Формат : E-AC-3
Формат/Информация : Enhanced AC-3
Коммерческое название : Dolby Digital Plus
Идентификатор кодека : A_EAC3
Продолжительность : 1 ч. 49 м.
Вид битрейта : Постоянный
Битрейт : 640 Кбит/сек
Каналы : 6 каналов
ChannelLayout : L R C LFE Ls Rs
Частота : 48,0 КГц
Частота кадров : 31,250 кадров/сек (1536 SPF)
Метод сжатия : С потерями
Задержка видео : 125 мс.
Размер потока : 502 Мбайт (3%)
Язык : English
ServiceKind/String : Complete Main
Default : Нет
Forced : Нет

Текст #1
Идентификатор : 5
Формат : UTF-8
Идентификатор кодека : S_TEXT/UTF8
Идентификатор кодека/Информация : UTF-8 Plain Text
Продолжительность : 1 ч. 44 м.
Битрейт : 60 бит/сек
ElementCount : 849
Размер потока : 46,0 Кбайт (0%)
Заголовок : FOCS
Язык : Russian
Default : Нет
Forced : Нет

Текст #2
Идентификатор : 6
Формат : UTF-8
Идентификатор кодека : S_TEXT/UTF8
Идентификатор кодека/Информация : UTF-8 Plain Text
Продолжительность : 4 с. 375 мс.
Битрейт : 65 бит/сек
ElementCount : 1
Размер потока : 36,0 байт (0%)
Заголовок : forced
Язык : English
Default : Нет
Forced : Нет

Текст #3
Идентификатор : 7
Формат : UTF-8
Идентификатор кодека : S_TEXT/UTF8
Идентификатор кодека/Информация : UTF-8 Plain Text
Продолжительность : 1 ч. 44 м.
Битрейт : 34 бит/сек
ElementCount : 901
Размер потока : 26,3 Кбайт (0%)
Заголовок : full
Язык : English
Default : Нет
Forced : Нет

Текст #4
Идентификатор : 8
Формат : UTF-8
Идентификатор кодека : S_TEXT/UTF8
Идентификатор кодека/Информация : UTF-8 Plain Text
Продолжительность : 1 ч. 49 м.
Битрейт : 52 бит/сек
ElementCount : 1522
Размер потока : 41,9 Кбайт (0%)
Заголовок : SDH
Язык : English
Default : Нет
Forced : Нет
pb.wtf



Скачать Битва за Землю через торрент https://b.radikal.ru/b15/1906/24/5f07f7023418.png Скачать фильм Битва за Землю через торрент бесплантно в хорошем качестве Описание: Мы всегда знали, что не одни в этом мире. Мы отправляли сигналы в надежде получить ответ. И нас услышали. За считанные часы ... 7 10 3
Торрент: Зарегистрирован [2019-07-28 17:56] · скачан: 135 раз
Статус: √ проверено
Размер: 19.39 GB
Как cкачать? Как скачать Битва за Землю через торрент | qTorrent

% Раздел Тема Автор DL S | L
Фильмы [HD 720p, 1080p] (Хороший звук DUB, MVO) [ 11.49 GB ] Битва за Землю / Captive State [2019 BDRip 1080p] +2xMVO [HDRezka Studio СВ Студия] bober100 Скачать
1 | 0
Фильмы 2019-2020 [DVDrip, WEB-DLRip, HDrip] (DUB, MVO) [ 1.41 GB ] Битва за Землю / Captive State [2019 BDRip] - Twi7ter Скачать
52 | 1
Фильмы 2019-2020 [DVDrip, WEB-DLRip, HDrip] (DUB, MVO) [ 1.77 GB ] Битва за Землю / Captive State [2019 BDRip-AVC] Dub - ExKinoRay Enigma2010 Скачать
12 | 0
Фильмы 2019-2020 [DVDrip, WEB-DLRip, HDrip] (DUB, MVO) [ 710 MB ] Битва за Землю / Captive State [2019 HDRip ""] coc900 Скачать
2 | 0
Фильмы 2019-2020 [DVDrip, WEB-DLRip, HDrip] (DUB, MVO) [ 2.31 GB ] Битва за Землю / Captive State [2019 BDRip-AVC] +2xMVO [HDRezka Studio СВ Студия] bober100 Скачать
1 | 0
Фильмы 2019-2020 [DVDrip, WEB-DLRip, HDrip] (DUB, MVO) [ 1.41 GB ] Битва за Землю / Captive State [2019 BDRip] bober100 Скачать
1 | 0
# Фильмы (мультфильмы) cо спонсором показа (Новинки AVI/MKV) [ 5.67 GB ] Битва за Землю / Captive State [2019 BDRip 720p] DUB [Line] bober100 Скачать
3 | 0

28-11-2019 20:33  

Отключить всю рекламу на сайте

    Дорогой пользователь! Огромная просьба, поблагодарите релизера, оцените раздачу и оставьте свои комментарий, если Вы скачали Битва за Землю через торрент бесплатно! Внесите свою лепту в развитие PiratBit!
    Комментировать посты могут только пользователи прошедшие не сложную регистрацию
    Показать сообщения:    

    Битва за Землю через торрент
    Скачать бесплатно Битва за Землю
    Битва за Землю скачать торрент
    Битва за Землю смотреть онлайн
    Cкачать фильм Битва за Землю бесплатно
    Битва за Землю скачать торрент в хорошем качестве
    Битва за Землю смотреть онлайн бесплатно в хорошем качестве


    Вы не можете начинать темы
    Вы не можете отвечать на сообщения
    Вы не можете редактировать свои сообщения
    Вы не можете удалять свои сообщения
    Вы не можете голосовать в опросах
    Вы не можете прикреплять файлы к сообщениям
    Вы можете скачивать файлы