Всегда рабочее зеркало без VPN и Proxy просто перед .vidak.icu напиши любое слово или цифру, Пример http://72d5.vidak.icu

MVO

MVO

1 сезон

1

1 сезон

iTunes

1 сезон

13

1 сезон

Deluxe

pack

Рекомендуем

Repack

30

ВАЖНО

RePack

MK11

RePack

jed

RePack

fifa19

RePack

RDR2

RePack

NEED FOR SPEED™ PAYBACK

Кинопоиск HD

6 сезон

 Острые козырьки 6 сезон

Все сериалы

все сериалы на PB.wtf

RePack

FAR CRY 5
  
Magnet ссылка

В погоне за Бонни и Клайдом / Разбойники с большой дороги / The Highwaymen (Джон Ли Хэнкок) [2019, триллер, драма, криминал, UHD WEBRip 2160p] DUB + DVO + AVO pb.wtf

В погоне за Бонни и Клайдом через торрент pb.wtf

Размер: 18.03 GB | Добавлен: 3 года назад | Торрент скачан:159 раз
Смотреть онлайн В погоне за Бонни и Клайдом | Скачать    Ребята, помогите собрать деньги на оплату серверов!!!

28-07-2019 18:01 В погоне за Бонни и Клайдом Скачать торрент  

В погоне за Бонни и Клайдом / Разбойники с большой дороги / The Highwaymen«The Legends who took down Bonnie and Clyde»

Год выпуска: 2019
Страна: США
Жанр: триллер, драма, криминал, детектив
Продолжительность: 02:11:44
Перевод: Дублированный, профессиональный двухголосый, авторский
Субтитры: русские (форсированные, полные), английские (full v.1, full v.2, SDH)
Режиссер: Джон Ли Хэнкок

В ролях:

Кевин Костнер (Frank Hamer), Вуди Харрельсон (Maney Gault), Ким Диккенс (Gladys Hamer), Эмили Бробст (Bonnie Parker), Кэти Бейтс (Governor Ma Ferguson), У. Эрл Браун (Ivy Methvin), Джон Кэрролл Линч (Lee Simmons), Томас Манн (Ted Hinton), Эдвард Боссерт (Clyde Barrow), Дэвид Фурр (John Quinn), Джейн МакНейлл (Emma Parker), Джесси Бойд (Ray Hamilton)
Описание:
В 1930-е годы техасский рейнджер Фрэнк Хеймер получает задание поймать и обезвредить двух опасных грабителей банков. Вместе с напарником Мэнни Голтом он возглавляет охоту за парочкой молодых неуловимых преступников, которых зовут Бонни и Клайд.
Рейтинг:

MPAA: R - Лицам до 17 лет обязательно присутствие взрослого
Качество: UHD WEBRip 2160p
Формат: MKV
Видео: MPEG-H HEVC Video / 17100 kbps / 3840x1600 / 24 fps / 2,40:1 / Main 10 @ Level 5.1 @ High / 4:2:0 / 10 bits / HDR10 / BT.2020
Аудио 1: Russian E-AC3 / 5.1 / 48 kHz / 640 kbps |Dub, АРК-ТВ Studio и VSI International|
Аудио 2: Russian AC3 / 5.1 / 48 kHz / 448 kbps / 16 bits |DVO, Кубик в Кубе|
Аудио 3: Russian AC3 / 5.1 / 48 kHz / 640 kbps / 16 bits |Ю. Немахов|
Аудио 4: English E-AC3+Atmos / 5.1 / 48 kHz / 768 kbps |original|

Общее
Уникальный идентификатор : 48474136136448644603713822532292628327 (0x2477C76E993671B3BC8908E9F904CF67)
Полное имя : H:\UHD\В погоне за Бонни и Клайдом.2019.2160p.WEBRip.HDR.mkv
Формат : Matroska
Версия формата : Version 4
Размер файла : 18,0 Гбайт
Продолжительность : 2 ч. 11 м.
Общий поток : 19,6 Мбит/сек
Дата кодирования : UTC 2019-07-28 14:48:58
Программа кодирования : mkvmerge v35.0.0 ('All The Love In The World') 64-bit
Библиотека кодирования : libebml v1.3.9 + libmatroska v1.5.2
Attachments : poster.jpg

Видео
Идентификатор : 1
Формат : HEVC
Формат/Информация : High Efficiency Video Coding
Профиль формата : Main [email protected]@High
HDR_Format/String : SMPTE ST 2086, HDR10 compatible
Идентификатор кодека : V_MPEGH/ISO/HEVC
Продолжительность : 2 ч. 11 м.
Битрейт : 17,1 Мбит/сек
Ширина : 3840 пикселей
Высота : 1600 пикселей
Соотношение сторон : 2,40:1
Режим частоты кадров : Постоянный
Частота кадров : 24,000 кадра/сек
Цветовое пространство : YUV
Субдискретизация насыщенности : 4:2:0 (Type 2)
Битовая глубина : 10 бит
Бит/(Пиксели*Кадры) : 0.116
Размер потока : 15,7 Гбайт (87%)
Библиотека кодирования : x265 3.0_Au+21-bac0e1acb874:[Windows][GCC 8.3.0][64 bit] 10bit
Настройки программы : cpuid=1111039 / frame-threads=4 / numa-pools=28 / wpp / no-pmode / no-pme / no-psnr / no-ssim / log-level=2 / input-csp=1 / input-res=3840x1600 / interlace=0 / total-frames=178829 / level-idc=51 / high-tier=1 / uhd-bd=0 / ref=4 / no-allow-non-conformance / repeat-headers / annexb / aud / hrd / info / hash=0 / no-temporal-layers / no-open-gop / min-keyint=24 / keyint=240 / gop-lookahead=0 / bframes=4 / b-adapt=2 / b-pyramid / bframe-bias=0 / rc-lookahead=25 / lookahead-slices=4 / scenecut=40 / radl=0 / no-splice / no-intra-refresh / ctu=64 / min-cu-size=8 / rect / no-amp / max-tu-size=32 / tu-inter-depth=1 / tu-intra-depth=1 / limit-tu=0 / rdoq-level=2 / dynamic-rd=0.00 / no-ssim-rd / signhide / no-tskip / nr-intra=0 / nr-inter=0 / no-constrained-intra / no-strong-intra-smoothing / max-merge=3 / limit-refs=3 / limit-modes / me=3 / subme=3 / merange=57 / temporal-mvp / weightp / no-weightb / no-analyze-src-pics / deblock=-3:-3 / no-sao / no-sao-non-deblock / rd=4 / no-early-skip / rskip / no-fast-intra / no-tskip-fast / no-cu-lossless / no-b-intra / no-splitrd-skip / rdpenalty=0 / psy-rd=2.00 / psy-rdoq=1.00 / no-rd-refine / no-lossless / cbqpoffs=0 / crqpoffs=0 / rc=crf / crf=13.0 / qcomp=0.60 / qpstep=4 / stats-write=0 / stats-read=0 / vbv-maxrate=160000 / vbv-bufsize=160000 / vbv-init=0.9 / crf-max=0.0 / crf-min=0.0 / ipratio=1.40 / pbratio=1.30 / aq-mode=1 / aq-strength=1.00 / cutree / zone-count=0 / no-strict-cbr / qg-size=32 / no-rc-grain / qpmax=69 / qpmin=0 / no-const-vbv / sar=0 / overscan=0 / videoformat=5 / range=0 / colorprim=9 / transfer=16 / colormatrix=9 / chromaloc=1 / chromaloc-top=2 / chromaloc-bottom=2 / display-window=0 / master-display=G(13250,34500)B(7500,3000)R(34000,16000)WP(15635,16450)L(40000000,50) / max-cll=760,92 / min-luma=0 / max-luma=1023 / log2-max-poc-lsb=8 / vui-timing-info / vui-hrd-info / slices=1 / no-opt-qp-pps / no-opt-ref-list-length-pps / no-multi-pass-opt-rps / scenecut-bias=0.05 / no-opt-cu-delta-qp / no-aq-motion / hdr / hdr-opt / no-dhdr10-opt / no-idr-recovery-sei / analysis-reuse-level=5 / scale-factor=0 / refine-intra=0 / refine-inter=0 / refine-mv=0 / refine-ctu-distortion=0 / no-limit-sao / ctu-info=0 / no-lowpass-dct / refine-analysis-type=0 / copy-pic=1 / max-ausize-factor=1.0 / no-dynamic-refine / no-single-sei / no-hevc-aq / no-svt / qp-adaptation-range=1.00
Default : Да
Forced : Нет
Цветовой диапазон : Limited
Основные цвета : BT.2020
Характеристики трансфера : PQ
Коэффициенты матрицы : BT.2020 non-constant
MasteringDisplay_ColorPrimaries : Display P3
MasteringDisplay_Luminance : min: 0.0050 cd/m2, max: 4000 cd/m2
MaxCLL : 760 cd/m2
MaxFALL : 92 cd/m2

Аудио #1
Идентификатор : 2
Формат : E-AC-3
Формат/Информация : Enhanced AC-3
Коммерческое название : Dolby Digital Plus
Идентификатор кодека : A_EAC3
Продолжительность : 2 ч. 11 м.
Вид битрейта : Постоянный
Битрейт : 640 Кбит/сек
Каналы : 6 каналов
ChannelLayout : L R C LFE Ls Rs
Частота : 48,0 КГц
Частота кадров : 31,250 кадров/сек (1536 SPF)
Метод сжатия : С потерями
Размер потока : 603 Мбайт (3%)
Заголовок : Dub, АРК-ТВ Studio и VSI International
Язык : Russian
ServiceKind/String : Complete Main
Default : Да
Forced : Нет

Аудио #2
Идентификатор : 3
Формат : AC-3
Формат/Информация : Audio Coding 3
Коммерческое название : Dolby Digital
Идентификатор кодека : A_AC3
Продолжительность : 2 ч. 11 м.
Вид битрейта : Постоянный
Битрейт : 448 Кбит/сек
Каналы : 6 каналов
ChannelLayout : L R C LFE Ls Rs
Частота : 48,0 КГц
Частота кадров : 31,250 кадров/сек (1536 SPF)
Битовая глубина : 16 бит
Метод сжатия : С потерями
Размер потока : 422 Мбайт (2%)
Заголовок : DVO, Кубик в Кубе
Язык : Russian
ServiceKind/String : Complete Main
Default : Нет
Forced : Нет

Аудио #3
Идентификатор : 4
Формат : AC-3
Формат/Информация : Audio Coding 3
Коммерческое название : Dolby Digital
Идентификатор кодека : A_AC3
Продолжительность : 2 ч. 11 м.
Вид битрейта : Постоянный
Битрейт : 640 Кбит/сек
Каналы : 6 каналов
ChannelLayout : L R C LFE Ls Rs
Частота : 48,0 КГц
Частота кадров : 31,250 кадров/сек (1536 SPF)
Битовая глубина : 16 бит
Метод сжатия : С потерями
Размер потока : 603 Мбайт (3%)
Заголовок : Ю. Немахов
Язык : Russian
ServiceKind/String : Complete Main
Default : Нет
Forced : Нет

Аудио #4
Идентификатор : 5
Формат : E-AC-3 JOC
Формат/Информация : Enhanced AC-3 with Joint Object Coding
Коммерческое название : Dolby Digital Plus with Dolby Atmos
Идентификатор кодека : A_EAC3
Продолжительность : 2 ч. 11 м.
Вид битрейта : Постоянный
Битрейт : 768 Кбит/сек
Каналы : 6 каналов
ChannelLayout : L R C LFE Ls Rs
Частота : 48,0 КГц
Частота кадров : 31,250 кадров/сек (1536 SPF)
Метод сжатия : С потерями
Задержка видео : 13 мс.
Размер потока : 724 Мбайт (4%)
Язык : English
ServiceKind/String : Complete Main
Default : Нет
Forced : Нет
ComplexityIndex : 16
NumberOfDynamicObjects : 15
BedChannelCount/String : 1 канал
BedChannelConfiguration : LFE

Текст #1
Идентификатор : 6
Формат : UTF-8
Идентификатор кодека : S_TEXT/UTF8
Идентификатор кодека/Информация : UTF-8 Plain Text
Продолжительность : 2 ч. 11 м.
Битрейт : 2 бит/сек
ElementCount : 43
Размер потока : 2,35 Кбайт (0%)
Заголовок : forced
Язык : Russian
Default : Да
Forced : Нет

Текст #2
Идентификатор : 7
Формат : UTF-8
Идентификатор кодека : S_TEXT/UTF8
Идентификатор кодека/Информация : UTF-8 Plain Text
Продолжительность : 2 ч. 11 м.
Битрейт : 61 бит/сек
ElementCount : 1375
Размер потока : 58,9 Кбайт (0%)
Заголовок : full
Язык : Russian
Default : Нет
Forced : Нет

Текст #3
Идентификатор : 8
Формат : UTF-8
Идентификатор кодека : S_TEXT/UTF8
Идентификатор кодека/Информация : UTF-8 Plain Text
Продолжительность : 2 ч. 0 м.
Битрейт : 45 бит/сек
ElementCount : 1196
Размер потока : 40,5 Кбайт (0%)
Заголовок : full v.1
Язык : English
Default : Нет
Forced : Нет

Текст #4
Идентификатор : 9
Формат : UTF-8
Идентификатор кодека : S_TEXT/UTF8
Идентификатор кодека/Информация : UTF-8 Plain Text
Продолжительность : 2 ч. 2 м.
Битрейт : 44 бит/сек
ElementCount : 1313
Размер потока : 40,0 Кбайт (0%)
Заголовок : full v.2
Язык : English
Default : Нет
Forced : Нет

Текст #5
Идентификатор : 10
Формат : UTF-8
Идентификатор кодека : S_TEXT/UTF8
Идентификатор кодека/Информация : UTF-8 Plain Text
Продолжительность : 2 ч. 4 м.
Битрейт : 48 бит/сек
ElementCount : 1513
Размер потока : 44,4 Кбайт (0%)
Заголовок : SDH
Язык : English
Default : Нет
Forced : Нет
pb.wtf



Скачать В погоне за Бонни и Клайдом через торрент https://d.radikal.ru/d15/1903/52/4bc2774ca1fd.png Скачать, смотреть онлайн В погоне за Бонни и Клайдом бесплантно в хорошем качестве Описание: В 1930-е годы техасский рейнджер Фрэнк Хеймер получает задание поймать и обезвредить двух опасных грабителей банков. Вместе с ... 10 10 3
Торрент: Зарегистрирован [2019-07-28 18:01] · скачан: 159 раз
Статус: √ проверено
Размер: 18.03 GB
Как cкачать? Как скачать В погоне за Бонни и Клайдом через торрент | UTorrent

% Раздел Тема Автор DL S | L
Ultra HD (UHD: 2K, 4K, 8K) — видео сверхвысокой чёткости [ 24.66 GB ] В погоне за Бонни и Клайдом / Разбойники с большой дороги / The Highwaymen [2019 UHD WEBRip 2160p] [SDR] DUB [АРК-ТВ Studio и VSI International] + AVO [Ю. Немахов] sheker187 Скачать
1 | 0

28-11-2019 20:33  

Отключить вcю реклaмy на сайте

    Дорогой пользователь! Огромная просьба, поблагодарите релизера, оцените раздачу и оставьте свои комментарий, если Вы скачали В погоне за Бонни и Клайдом через торрент бесплатно!
    Комментировать посты могут только пользователи прошедшие не сложную регистрацию
    Показать сообщения:    

    В погоне за Бонни и Клайдом через торрент
    Скачать бесплатно В погоне за Бонни и Клайдом
    В погоне за Бонни и Клайдом скачать торрент
    В погоне за Бонни и Клайдом смотреть онлайн
    Cкачать фильм В погоне за Бонни и Клайдом бесплатно
    В погоне за Бонни и Клайдом скачать торрент в хорошем качестве
    В погоне за Бонни и Клайдом смотреть онлайн бесплатно в хорошем качестве


    Вы не можете начинать темы
    Вы не можете отвечать на сообщения
    Вы не можете редактировать свои сообщения
    Вы не можете удалять свои сообщения
    Вы не можете голосовать в опросах
    Вы не можете прикреплять файлы к сообщениям
    Вы можете скачивать файлы