Ссылка на приватное зеркало нашего сайта всего за 1$. Внимание количество ограничено!!!

2 сезон

iTunes

1 сезон

1

2 сезон

2 сезон

iTunes

1 сезон

RePack

30

Новинка

ВАЖНО

ИГРА 18+

pack

RePack

MK11
pack

Забери бонус

RePack

jed

!!Акция!!

Alien_Rage

RePack

fifa19

RePack

Assassins Creed: Odyssey

RePack

NEED FOR SPEED™ PAYBACK

4 сезон

9 сезон

Бесстыжие 9 сезон

Все сериалы

все сериалы на PB.wtf

RePack

FAR CRY 5
  

Безумный куш / Danger One (Том Ош) [2018 г., Боевик, триллер, комедия, криминал, WEB-DL 720p] [DUB] [iTunes] pb.wtf

Безумный куш через торрент pb.wtf

Размер: 3.17 GB | Добавлен: 1 год 4 мес. назад | Торрент скачан:61 раз
Скачать  

28-07-2019 19:56 Безумный куш Скачать торрент  

«Безумный куш | Danger One»
Год выпуска: 2018
Страна: США
Жанр: Боевик, триллер, комедия, криминал
Продолжительность: 01:41:48
Перевод: Дублированный [iTunes]

Режиссер: Том Эш

В ролях: Том Эверетт Скотт, Омар Джурди, Анхелика Селая, Дэнис О’Хэр, Майкл О’Нил, Дэймон Дэйуб, Чарльз Шонесси, Ванесса Вандер Плюм, Келли Фрай, Гойя Роблз

Описание: Два сотрудника скорой помощи прибывают на место автомобильной аварии, где забирают мужчину, находящегося в критическом состоянии. Пытаясь спасти потерпевшего, по пути в госпиталь герои обнаруживают в подкладке его куртки весьма необычную находку — 1 миллион долларов наличными.
Не у каждого пациента оказывается миллион баксов и не каждый с такой суммой… умирает прямо в машине скорой помощи! Опешившие медбратья должны сделать выбор прямо здесь и сейчас: присвоить эту сумму или остаться законопослушными гражданами.

rating

Качество: WEB-DL 720p
Формат: MKV

Видео: AVC, 1280x532 (2.40:1), 23.976 fps, 3 988 Kbps (0.244 bit/pixel)
Аудио: 48 kHz, AC3 Dolby Digital, 3/2 (L,C,R,l,r) + LFE ch, ~384.00 kbps avg
скриншот  скриншот  скриншот  

Danger.One.2018.720p.WEB-DL.Rus.TeamHD.mkv
Format : Matroska
Format version : Version 4 / Version 2
File size : 3.17 GiB
Duration : 1h 41mn
Overall bit rate : 4 460 Kbps
Encoded date : UTC 2019-07-28 18:53:55
Writing application : mkvmerge v8.5.1 ('Where you lead I will follow') 64bit
Writing library : libebml v1.3.3 + libmatroska v1.4.4
DURATION : 01:41:48.576000000
NUMBER_OF_FRAMES : 190893
NUMBER_OF_BYTES : 293211648
_STATISTICS_WRITING_APP : mkvmerge v8.5.1 ('Where you lead I will follow') 64bit
_STATISTICS_WRITING_DATE_UTC : 2019-07-28 18:53:55
_STATISTICS_TAGS : BPS DURATION NUMBER_OF_FRAMES NUMBER_OF_BYTES

Video
ID : 1
Format : AVC
Format/Info : Advanced Video Codec
Format profile : Main@L3.1
Format settings, CABAC : No
Format settings, ReFrames : 2 frames
Codec ID : V_MPEG4/ISO/AVC
Duration : 1h 41mn
Bit rate : 3 988 Kbps
Width : 1 280 pixels
Height : 532 pixels
Display aspect ratio : 2.40:1
Frame rate mode : Constant
Frame rate : 23.976 fps
Color space : YUV
Chroma subsampling : 4:2:0
Bit depth : 8 bits
Scan type : Progressive
Bits/(Pixel*Frame) : 0.244
Stream size : 2.84 GiB (89%)
Title : Main Program
Language : English
Default : Yes
Forced : No
Color primaries : BT.709
Transfer characteristics : BT.709
Matrix coefficients : BT.709

Audio
ID : 2
Format : AC-3
Format/Info : Audio Coding 3
Mode extension : CM (complete main)
Format settings, Endianness : Big
Codec ID : A_AC3
Duration : 1h 41mn
Bit rate mode : Constant
Bit rate : 384 Kbps
Channel(s) : 6 channels
Channel positions : Front: L C R, Side: L R, LFE
Sampling rate : 48.0 KHz
Bit depth : 16 bits
Compression mode : Lossy
Stream size : 280 MiB (9%)
Title : Russian DUB from iTunes Russia DD 5.1
Language : Russian
Default : Yes
Forced : No

Menu
00:00:00.000 : en:Глава 1
00:08:24.379 : en:Глава 2
00:16:51.803 : en:Глава 3
00:24:16.831 : en:Глава 4
00:31:34.393 : en:Глава 5
00:39:53.183 : en:Глава 6
00:48:22.066 : en:Глава 7
00:56:40.189 : en:Глава 8
01:05:29.927 : en:Глава 9
01:13:41.418 : en:Глава 10
01:22:18.184 : en:Глава 11
01:30:43.606 : en:Глава 12

pb.wtf



Скачать Безумный куш через торрент https://d.radikal.ru/d25/1907/a4/ba49a064de3d.png Скачать фильм Безумный куш через торрент бесплантно в хорошем качестве Описание: Два сотрудника скорой помощи прибывают на место автомобильной аварии, где забирают мужчину, находящегося в критическом состоянии. ... 1 10 1
Торрент: Зарегистрирован [2019-07-28 19:56] · скачан: 61 раз
Статус: √ проверено
Размер: 3.17 GB
Как cкачать? Как скачать Безумный куш через торрент | qTorrent

% Раздел Тема Автор DL S | L
Фильмы 2018 [DVDrip, WEB-DLRip, HDrip] (DUB, MVO) [ 1.69 GB ] Безумный куш / Опасная / Danger One [2018 WEB-DLRip-AVC] +MVO [HDRezka Studio] bober100 Скачать
1 | 0
Фильмы (WEB-DL 720p, 1080p) [ 3.95 GB ] Безумный куш / Опасная / Danger One [2018 WEB-DL 1080p] +MVO [HDRezka Studio] bober100 Скачать
1 | 0
Фильмы 2018 [DVDrip, WEB-DLRip, HDrip] (DUB, MVO) [ 1.46 GB ] Безумный куш / Опасная / Danger One [2018 WEB-DLRip] bober100 Скачать
1 | 0

28-11-2019 20:33  

Отключить всю рекламу на сайте

    Дорогой пользователь! Огромная просьба, поблагодарите релизера, оцените раздачу и оставьте свои комментарий, если Вы скачали Безумный куш через торрент бесплатно! Внесите свою лепту в развитие PiratBit!
    Комментировать посты могут только пользователи прошедшие не сложную регистрацию
    Показать сообщения:    

    Безумный куш через торрент
    Скачать бесплатно Безумный куш
    Безумный куш скачать торрент
    Безумный куш смотреть онлайн
    Cкачать фильм Безумный куш бесплатно
    Безумный куш скачать торрент в хорошем качестве
    Безумный куш смотреть онлайн бесплатно в хорошем качестве


    Вы не можете начинать темы
    Вы не можете отвечать на сообщения
    Вы не можете редактировать свои сообщения
    Вы не можете удалять свои сообщения
    Вы не можете голосовать в опросах
    Вы не можете прикреплять файлы к сообщениям
    Вы можете скачивать файлы