Ссылка на приватное зеркало нашего сайта всего за 1$. Внимание количество ограничено!!!

2 сезон

iTunes

1 сезон

1

2 сезон

2 сезон

iTunes

1 сезон

RePack

30

Ultimate

ВАЖНО

ИГРА 18+

pack

RePack

MK11
pack

Забери бонус

RePack

jed

!!Акция!!

Alien_Rage

RePack

fifa19

RePack

Assassins Creed: Odyssey

RePack

NEED FOR SPEED™ PAYBACK

4 сезон

9 сезон

Бесстыжие 9 сезон

Все сериалы

все сериалы на PB.wtf

RePack

FAR CRY 5
  

Безумный куш / Опасная / Danger One (Том Эш) [2018, Боевик, триллер, комедия, криминал, WEB-DL 1080p] DUB [iTunes] +MVO [HDRezka Studio] pb.wtf

Безумный куш через торрент pb.wtf

Размер: 3.95 GB | Добавлен: 1 год 3 мес. назад | Торрент скачан:169 раз
Скачать  

28-07-2019 21:26 Безумный куш Скачать торрент  

Безумный куш / Опасная / Danger One
Год выпуска: 2018
Страна: США
Жанр: Боевик, триллер, комедия, криминал
Продолжительность: 01:42:00
Перевод:

Дублированный | iTunes
Профессиональный многоголосый | HDRezka Studio

Субтитры: Английские

Режиссер: Том Эш

rating

В ролях: Том Эверетт Скотт, Омар Джурди, Анхелика Селая, Дэнис О’Хэр, Майкл О’Нил, Дэймон Дэйуб, Чарльз Шонесси, Ванесса Вандер Плюм, Келли Фрай, Гойя Роблз

Описание: В центре сюжета оказывается Эрик, который, несмотря на протесты жены, продолжает практически впустую тратить своё время, работая в скорой помощи вместе со своим лучшим другом Дином. Чтобы обеспечить семью и оплатить лечение болеющему сыну, мужчина вынужден дополнительно выходить на работу, но денег всё равно не хватает. Но всё меняется, когда двое друзей отправляются к месту автомобильной аварии, где находят в куртке жертвы один миллион долларов, который они решают оставить себе. В тот момент они даже не задумывались, что большие деньги приносят большие проблемы, особенно если эти деньги чужие.

Качество: WEB-DL 1080p
Формат: MKV

Видео: AVC/H.264, 1920x790, 4585 Кbps, 23,976 fps
Аудио#1: AC3, 6 ch, 384 Kbps - Русский (DUB)
Аудио#2: AC3, 2 ch, 192 Kbps - Русский (MVO HDRezka Studio)
Аудио#3: AC3, 6 ch, 384 Kbps - Английский
скриншот  скриншот  скриншот  скриншот  

Общее
Уникальный идентификатор : 110911132246576596110141257050885961193 (0x5370B502EE1116D9AC9139D67D8BB5E9)
Полное имя : Danger One.2018.WEB-DL.1080p.mkv
Формат : Matroska
Версия формата : Version 4
Размер файла : 3,95 Гбайт
Продолжительность : 1 ч. 42 м.
Общий поток : 5526 Кбит/сек
Название фильма : Danger One.2018.WEB-DL.1080p
Дата кодирования : UTC 2019-07-28 20:43:37
Программа кодирования : mkvmerge v23.0.0 ('The Bride Said No') 64-bit
Библиотека кодирования : libebml v1.3.6 + libmatroska v1.4.9

Видео
Идентификатор : 1
Формат : AVC
Формат/Информация : Advanced Video Codec
Профиль формата : High@L4
Настройки формата : CABAC / 5 Ref Frames
Параметр CABAC формата : Да
Параметр RefFrames формата : 5 кадров
Идентификатор кодека : V_MPEG4/ISO/AVC
Продолжительность : 1 ч. 41 м.
Битрейт : 4585 Кбит/сек
Ширина : 1920 пикселей
Высота : 790 пикселей
Соотношение сторон : 2,40:1
Режим частоты кадров : Постоянный
Частота кадров : 23,976 (23976/1000) кадра/сек
Цветовое пространство : YUV
Субдискретизация насыщенности : 4:2:0
Битовая глубина : 8 бит
Тип развёртки : Прогрессивная
Бит/(Пиксели*Кадры) : 0.126
Размер потока : 3,27 Гбайт (83%)
Язык : English
Default : Да
Forced : Нет
Цветовой диапазон : Limited
Основные цвета : BT.709
Характеристики трансфера : BT.709
Коэффициенты матрицы : BT.709

Аудио #1
Идентификатор : 2
Формат : AC-3
Формат/Информация : Audio Coding 3
Коммерческое название : Dolby Digital
Идентификатор кодека : A_AC3
Продолжительность : 1 ч. 41 м.
Вид битрейта : Постоянный
Битрейт : 384 Кбит/сек
Каналы : 6 каналов
ChannelLayout : L R C LFE Ls Rs
Частота : 48,0 КГц
Частота кадров : 31,250 кадров/сек (1536 SPF)
Битовая глубина : 16 бит
Метод сжатия : С потерями
Задержка видео : -42 мс.
Размер потока : 280 Мбайт (7%)
Заголовок : DUB (iTunes)
Язык : Russian
ServiceKind : Complete Main
Default : Да
Forced : Нет

Аудио #2
Идентификатор : 3
Формат : AC-3
Формат/Информация : Audio Coding 3
Коммерческое название : Dolby Digital
Идентификатор кодека : A_AC3
Продолжительность : 1 ч. 42 м.
Вид битрейта : Постоянный
Битрейт : 192 Кбит/сек
Каналы : 2 канала
ChannelLayout : L R
Частота : 48,0 КГц
Частота кадров : 31,250 кадров/сек (1536 SPF)
Битовая глубина : 16 бит
Метод сжатия : С потерями
Задержка видео : -42 мс.
Размер потока : 141 Мбайт (3%)
Заголовок : MVO [HDRezka Studio]
Язык : Russian
ServiceKind : Complete Main
Default : Нет
Forced : Нет

Аудио #3
Идентификатор : 4
Формат : AC-3
Формат/Информация : Audio Coding 3
Коммерческое название : Dolby Digital
Идентификатор кодека : A_AC3
Продолжительность : 1 ч. 41 м.
Вид битрейта : Постоянный
Битрейт : 384 Кбит/сек
Каналы : 6 каналов
ChannelLayout : L R C LFE Ls Rs
Частота : 48,0 КГц
Частота кадров : 31,250 кадров/сек (1536 SPF)
Битовая глубина : 16 бит
Метод сжатия : С потерями
Задержка видео : -42 мс.
Размер потока : 280 Мбайт (7%)
Язык : English
ServiceKind : Complete Main
Default : Нет
Forced : Нет

Текст
Идентификатор : 5
Формат : UTF-8
Идентификатор кодека : S_TEXT/UTF8
Идентификатор кодека/Информация : UTF-8 Plain Text
Продолжительность : 1 ч. 41 м.
Битрейт : 58 бит/сек
ElementCount : 1631
Размер потока : 43,1 Кбайт (0%)
Заголовок : Full
Язык : English
Default : Нет
Forced : Нет

Меню
00:00:00.000 : en:1
00:11:58.009 : en:2
00:23:36.749 : en:3
00:34:17.264 : en:4
00:44:53.942 : en:5
00:59:16.179 : en:6
01:12:11.996 : en:7
01:22:51.635 : en:8
01:39:02.897 : en:9

pb.wtf



Скачать Безумный куш через торрент http://c.radikal.ru/c20/1907/e8/1a1b66de33ec.jpg Скачать фильм Безумный куш через торрент бесплантно в хорошем качестве Описание: В центре сюжета оказывается Эрик, который, несмотря на протесты жены, продолжает практически впустую тратить своё время, работая ... 10 10 7
Торрент: Зарегистрирован [2019-07-28 21:26] · скачан: 169 раз
Статус: √ проверено
Размер: 3.95 GB
Как cкачать? Как скачать Безумный куш через торрент | qTorrent

% Раздел Тема Автор DL S | L
Фильмы 2018 [DVDrip, WEB-DLRip, HDrip] (DUB, MVO) [ 1.69 GB ] Безумный куш / Опасная / Danger One [2018 WEB-DLRip-AVC] +MVO [HDRezka Studio] bober100 Скачать
1 | 0
Фильмы 2018 [DVDrip, WEB-DLRip, HDrip] (DUB, MVO) [ 1.46 GB ] Безумный куш / Опасная / Danger One [2018 WEB-DLRip] bober100 Скачать
1 | 0

28-11-2019 20:33  

Отключить всю рекламу на сайте

    Дорогой пользователь! Огромная просьба, поблагодарите релизера, оцените раздачу и оставьте свои комментарий, если Вы скачали Безумный куш через торрент бесплатно! Внесите свою лепту в развитие PiratBit!
    Комментировать посты могут только пользователи прошедшие не сложную регистрацию
    Показать сообщения:    

    Безумный куш через торрент
    Скачать бесплатно Безумный куш
    Безумный куш скачать торрент
    Безумный куш смотреть онлайн
    Cкачать фильм Безумный куш бесплатно
    Безумный куш скачать торрент в хорошем качестве
    Безумный куш смотреть онлайн бесплатно в хорошем качестве


    Вы не можете начинать темы
    Вы не можете отвечать на сообщения
    Вы не можете редактировать свои сообщения
    Вы не можете удалять свои сообщения
    Вы не можете голосовать в опросах
    Вы не можете прикреплять файлы к сообщениям
    Вы можете скачивать файлы