2 сезон

iTunes

MVO

1

2 сезон

iTunes

iTunes

1 сезон

RePack

30

Новинка

ВАЖНО

ИГРА 18+

pack

RePack

MK11
pack

Легкие деньги

RePack

jed

RePack

fifa19

RePack

RDR2

RePack

NEED FOR SPEED™ PAYBACK

4 сезон

9 сезон

Бесстыжие 9 сезон

Все сериалы

все сериалы на PB.wtf

RePack

FAR CRY 5

Anonymous, добрый день, мы не успеваем собрать деньги на оплату серверов за декабрь и январь, помогите нам пожалуйста в это трудное время. В качестве благодарности мы отключим Вам всю рекламу на сайте (укажите свой ник в строку Ваше имя)!

×
  
Magnet ссылка

Мисс Пуля / Miss Bala (Кэтрин Хардвик) [2019, Боевик, триллер, драма, BDRip 1080p, (60 fps)] MVO [Лицензия] pb.wtf

Мисс Пуля через торрент pb.wtf

Размер: 12.79 GB | Добавлен: 1 год 5 мес. назад | Торрент скачан:89 раз
Скачать  

29-07-2019 07:57 Мисс Пуля Скачать торрент  

Мисс Пуля / Miss Bala«Who would you become to save your family?»
Год выпуска: 2019
Страна: Мексика, США
Жанр: Боевик, триллер, драма
Продолжительность: 01:43:58
Перевод: Профессиональный многоголосый | Лицензия
Субтитры: Русские (Forced, full), украинские (Full), английские

Режиссер: Кэтрин Хардвик

rating

В ролях: Джина Родригез, Энтони Маки, Исмаэль Круз, Мэтт Лауриа, Томас Деккер, Айслинн Дербес, Кристина Рольдо, Рикардо Абарка, Даниэла де ла Фе, Уилл Блэгроув

Описание: Участница конкурса красоты Глория становится свидетельницей жестокой бандитской расправы и попадает в руки харизматичного наркобарона. С помощью шантажа и угроз он использует отчаянную красавицу как пешку в своей игре против ЦРУ и УБН.

Качество: BDRip 1080p | 60 fps
Формат: MKV

Видео: MPEG-4 AVC, 1920x800, 59.940 fps, 15.0 Mbps
Аудио#1: 48 kHz, AC3, 5.1, 640 Kbps | Лицензия | RUS |
Аудио#2: 48 kHz, DTS-HD MA, 5.1, 1509 Kbps | Оригинал | ENG |
скриншот  скриншот  скриншот  скриншот  

Видео
Идентификатор : 1
Формат : AVC
Формат/Информация : Advanced Video Codec
Профиль формата : High@L4.1
Параметр CABAC формата : Да
Параметр ReFrames формата : 5 кадров
Идентификатор кодека : V_MPEG4/ISO/AVC
Продолжительность : 1 ч. 43 м.
Битрейт : 15,0 Мбит/сек
Ширина : 1920 пикселей
Высота : 800 пикселей
Соотношение сторон : 2,40:1
Режим частоты кадров : Постоянный
Частота кадров : 59,940 (60000/1001) кадров/сек
Цветовое пространство : YUV
Субдискретизация насыщенности : 4:2:0
Битовая глубина : 8 бит
Тип развёртки : Прогрессивная
Бит/(Пиксели*Кадры) : 0.163
Размер потока : 10,9 Гбайт (85%)
Заголовок : Талямба
Библиотека кодирования : x264 core 146 r2538 121396c
Настройки программы : cabac=1 / ref=5 / deblock=1:-2:-2 / analyse=0x3:0x113 / me=umh / subme=9 / psy=1 / psy_rd=1.00:0.25 / mixed_ref=1 / me_range=32 / chroma_me=1 / trellis=2 / 8x8dct=1 / cqm=0 / deadzone=6,6 / fast_pskip=1 / chroma_qp_offset=-4 / threads=12 / lookahead_threads=2 / sliced_threads=0 / nr=0 / decimate=0 / interlaced=0 / bluray_compat=0 / constrained_intra=0 / bframes=3 / b_pyramid=2 / b_adapt=2 / b_bias=0 / direct=3 / weightb=1 / open_gop=0 / weightp=2 / keyint=600 / keyint_min=60 / scenecut=40 / intra_refresh=0 / rc_lookahead=60 / rc=2pass / mbtree=1 / bitrate=15000 / ratetol=1.0 / qcomp=0.80 / qpmin=0 / qpmax=69 / qpstep=4 / cplxblur=20.0 / qblur=0.5 / vbv_maxrate=50000 / vbv_bufsize=50000 / nal_hrd=none / filler=0 / ip_ratio=1.10 / aq=1:0.50
Язык : English
Default : Да
Forced : Нет

Аудио #1
Идентификатор : 2
Формат : AC-3
Формат/Информация : Audio Coding 3
Расширение режима : CM (complete main)
Параметр Endianness формата : Big
Идентификатор кодека : A_AC3
Продолжительность : 1 ч. 43 м.
Вид битрейта : Постоянный
Битрейт : 384 Кбит/сек
Каналы : 6 каналов
Расположение каналов : Front: L C R, Side: L R, LFE
Частота : 48,0 КГц
Частота кадров : 31,250 кадров/сек (1536 spf)
Битовая глубина : 16 бит
Метод сжатия : С потерями
Размер потока : 286 Мбайт (2%)
Заголовок : MVO [License]
Язык : Russian
Default : Да
Forced : Да

Аудио #2
Идентификатор : 3
Формат : DTS
Формат/Информация : Digital Theater Systems
Профиль формата : MA / Core
Режим : 16
Параметр Endianness формата : Big
Идентификатор кодека : A_DTS
Продолжительность : 1 ч. 43 м.
Вид битрейта : Переменный / Постоянный
Битрейт : 2220 Кбит/сек / 1509 Кбит/сек
Каналы : 6 каналов
Расположение каналов : Front: L C R, Side: L R, LFE
Частота : 48,0 КГц
Частота кадров : 93,750 кадра/сек (512 spf)
Битовая глубина : 16 бит
Метод сжатия : Без потерь / Lossy
Размер потока : 1,61 Гбайт (13%)
Заголовок : Original
Язык : English
Default : Нет
Forced : Нет

Текст #1
Идентификатор : 4
Формат : UTF-8
Идентификатор кодека : S_TEXT/UTF8
Идентификатор кодека/Информация : UTF-8 Plain Text
Продолжительность : 1 ч. 40 м.
Битрейт : 0 бит/сек
Count of elements : 2
Размер потока : 118 байт (0%)
Заголовок : Forced
Язык : Russian
Default : Да
Forced : Да

Текст #2
Идентификатор : 5
Формат : UTF-8
Идентификатор кодека : S_TEXT/UTF8
Идентификатор кодека/Информация : UTF-8 Plain Text
Продолжительность : 1 ч. 42 м.
Битрейт : 54 бит/сек
Count of elements : 972
Размер потока : 40,6 Кбайт (0%)
Заголовок : Full
Язык : Russian
Default : Нет
Forced : Нет

Текст #3
Идентификатор : 6
Формат : UTF-8
Идентификатор кодека : S_TEXT/UTF8
Идентификатор кодека/Информация : UTF-8 Plain Text
Продолжительность : 1 ч. 42 м.
Битрейт : 53 бит/сек
Count of elements : 971
Размер потока : 39,9 Кбайт (0%)
Заголовок : Full
Язык : Ukrainian
Default : Нет
Forced : Нет

Текст #4
Идентификатор : 7
Формат : UTF-8
Идентификатор кодека : S_TEXT/UTF8
Идентификатор кодека/Информация : UTF-8 Plain Text
Продолжительность : 1 ч. 36 м.
Битрейт : 35 бит/сек
Count of elements : 951
Размер потока : 24,9 Кбайт (0%)
Заголовок : Full
Язык : English
Default : Нет
Forced : Нет

Меню
00:00:00.000 : en:Chapter 01
00:05:31.706 : en:Chapter 02
00:12:15.777 : en:Chapter 03
00:17:39.600 : en:Chapter 04
00:24:00.439 : en:Chapter 05
00:27:02.621 : en:Chapter 06
00:35:19.034 : en:Chapter 07
00:41:09.801 : en:Chapter 08
00:46:20.236 : en:Chapter 09
00:55:58.021 : en:Chapter 10
00:59:22.768 : en:Chapter 11
01:03:48.950 : en:Chapter 12
01:09:17.945 : en:Chapter 13
01:20:28.741 : en:Chapter 14
01:25:28.373 : en:Chapter 15
01:30:06.610 : en:Chapter 16

pb.wtf



Скачать Мисс Пуля через торрент http://img14.lostpic.net/2019/05/08/df7393069d66bbbd1d682552b36116e4.jpg Скачать фильм Мисс Пуля через торрент бесплантно в хорошем качестве Описание: Участница конкурса красоты Глория становится свидетельницей жестокой бандитской расправы и попадает в руки харизматичного ... 10 10 4
Торрент: Зарегистрирован [2019-07-29 07:57] · скачан: 89 раз
Статус: √ проверено
Размер: 12.79 GB
Как cкачать? Как скачать Мисс Пуля через торрент | UTorrent

% Раздел Тема Автор DL S | L
Фильмы (Blu-ray, BD-Remux, HDDVD) [ 20.17 GB ] Мисс Пуля / Miss Bala [2019 BD Remux 1080p] MVO [] bober100 Скачать
1 | 0
Фильмы 2019-2020 [DVDrip, WEB-DLRip, HDrip] (DUB, MVO) [ 1.46 GB ] Мисс Пуля / Miss Bala [2019 BDRip] MVO [ BD EUR] bober100 Скачать
1 | 0
Фильмы [HD 720p, 1080p] (Хороший звук DUB, MVO) [ 6.08 GB ] Мисс Пуля / Miss Bala [2019 BDRip 720p] MVO [] bober100 Скачать
1 | 0
Фильмы [HD 720p, 1080p] (Хороший звук DUB, MVO) [ 10.38 GB ] Мисс Пуля / Miss Bala [2019 BDRip 1080p] MVO [] bober100 Скачать
1 | 0
Фильмы 2019-2020 [DVDrip, WEB-DLRip, HDrip] (DUB, MVO) [ 2.18 GB ] Мисс Пуля / Miss Bala [2019 BDRip-AVC] MVO [] bober100 Скачать
2 | 0
Фильмы 2019-2020 [DVDrip, WEB-DLRip, HDrip] (DUB, MVO) [ 1.46 GB ] Мисс Пуля / Miss Bala [2019 BDRip] MVO [] Twi7ter Скачать
6 | 2

28-11-2019 20:33  

Отключить всю рекламу на сайте

29-07-2019 12:14 Мисс Пуля Скачать торрент  

это на 2 скрине и есть "участница конкурса"?pb.wtf



29-07-2019 14:27 Мисс Пуля Скачать торрент  

dimapay писал(а):

это на 2 скрине и есть "участница конкурса"?

я художник, я так вижуpb.wtf



    Дорогой пользователь! Огромная просьба, поблагодарите релизера, оцените раздачу и оставьте свои комментарий, если Вы скачали Мисс Пуля через торрент бесплатно! Внесите свою лепту в развитие PiratBit!
    Комментировать посты могут только пользователи прошедшие не сложную регистрацию
    Показать сообщения:    

    Мисс Пуля через торрент
    Скачать бесплатно Мисс Пуля
    Мисс Пуля скачать торрент
    Мисс Пуля смотреть онлайн
    Cкачать фильм Мисс Пуля бесплатно
    Мисс Пуля скачать торрент в хорошем качестве
    Мисс Пуля смотреть онлайн бесплатно в хорошем качестве


    Вы не можете начинать темы
    Вы не можете отвечать на сообщения
    Вы не можете редактировать свои сообщения
    Вы не можете удалять свои сообщения
    Вы не можете голосовать в опросах
    Вы не можете прикреплять файлы к сообщениям
    Вы можете скачивать файлы