Ссылка на приватное зеркало всего за 1$. Внимание количество ограничено!!!

iTunes

1+1

iTunes

мы

WEB-DL

1

iTunes

Чернобыль

iTunes

Ральф против интернета

Лицензия

ПШазам

Лицензия

Оно 2

Лицензия

30
pack

Вам бонус

ВАЖНО

!!Акция!!

Alien_RageХит недели

RePack

Resident Evil 21

ИГРА 18+

pack

RePack

jed

!!Акция!!

Alien_Rage

RePack

fifa19

RePack

Assassins Creed: Odyssey

RePack

NEED FOR SPEED™ PAYBACK

3 сезон

9 сезон

Бесстыжие 9 сезон

Все сериалы

все сериалы на PB.wtf

RePack

FAR CRY 5
Ребята, катастрофически не хватает 1900р. для оплаты серверов за Октябрь (всвязи с блокировками трафик упал в 3 раза), 1-2р., выручайте.
  

Безумный куш / Опасная / Danger One (Том Эш) [2018, Боевик, триллер, комедия, криминал, WEB-DLRip-AVC] DUB [iTunes] +MVO [HDRezka Studio] pb.wtf

Безумный куш через торрент pb.wtf

Размер: 1.69 GB | Добавлен: 4 мес. 15 д. назад | Торрент скачан:135 раз
Скачать  

29-07-2019 08:49 Безумный куш Скачать торрент  

Безумный куш / Опасная / Danger One
Год выпуска: 2018
Страна: США
Жанр: Боевик, триллер, комедия, криминал
Продолжительность: 01:42:00
Перевод:

Дублированный | iTunes
Профессиональный многоголосый | HDRezka Studio

Субтитры: Английские

Режиссер: Том Эш

rating

В ролях: Том Эверетт Скотт, Омар Джурди, Анхелика Селая, Дэнис О’Хэр, Майкл О’Нил, Дэймон Дэйуб, Чарльз Шонесси, Ванесса Вандер Плюм, Келли Фрай, Гойя Роблз

Описание: В центре сюжета оказывается Эрик, который, несмотря на протесты жены, продолжает практически впустую тратить своё время, работая в скорой помощи вместе со своим лучшим другом Дином. Чтобы обеспечить семью и оплатить лечение болеющему сыну, мужчина вынужден дополнительно выходить на работу, но денег всё равно не хватает. Но всё меняется, когда двое друзей отправляются к месту автомобильной аварии, где находят в куртке жертвы один миллион долларов, который они решают оставить себе. В тот момент они даже не задумывались, что большие деньги приносят большие проблемы, особенно если эти деньги чужие.

Качество: WEB-DLRip-AVC
Формат: MKV

Видео: 1024x422 (2.40:1), 23,976 fps, x264 ~1 791 kbps avg, 0.173 bit/pixel
Аудио#1: 48 kHz, AC3 Dolby Digital, 3/2 (L,C,R,l,r) + LFE ch, ~384.00 kbps avg | RUS (iTunes)
Аудио#2: 48 kHz, AC3 Dolby Digital, 2 (L,R) ch, ~192.00 kbps avg | RUS (HDRezka Studio)
скриншот  скриншот  скриншот  скриншот  

Общее
Уникальный идентификатор : 144318039035430647453522915911118925151 (0x6C92A4AE9C83483F2C01CDD0E9F8AD5F)
Полное имя : F:\OlLanDGroup\Danger One.2018.WEB-DLRip(AVC).OlLanDGroup.mkv
Формат : Matroska
Версия формата : Version 4 / Version 2
Размер файла : 1,69 Гбайт
Продолжительность : 1 ч. 42 м.
Общий поток : 2359 Кбит/сек
Название фильма : Danger One.2018 #TorpedoUK#
Дата кодирования : UTC 2019-07-29 08:31:09
Программа кодирования : mkvmerge v29.0.0 ('Like It Or Not') 64-bit
Библиотека кодирования : libebml v1.3.6 + libmatroska v1.4.9

Видео
Идентификатор : 1
Формат : AVC
Формат/Информация : Advanced Video Codec
Профиль формата : High@L4.1
Параметр CABAC формата : Да
Параметр ReFrames формата : 10 кадров
Идентификатор кодека : V_MPEG4/ISO/AVC
Продолжительность : 1 ч. 41 м.
Битрейт : 1791 Кбит/сек
Ширина : 1024 пикселя
Высота : 422 пикселя
Соотношение сторон : 2,40:1
Режим частоты кадров : Постоянный
Частота кадров : 23,976 (24000/1001) кадра/сек
Цветовое пространство : YUV
Субдискретизация насыщенности : 4:2:0
Битовая глубина : 8 бит
Тип развёртки : Прогрессивная
Бит/(Пиксели*Кадры) : 0.173
Размер потока : 1,28 Гбайт (76%)
Библиотека кодирования : x264 core 146 r2538 121396c
Настройки программы : cabac=1 / ref=10 / deblock=1:-2:-3 / analyse=0x3:0x113 / me=umh / subme=10 / psy=1 / psy_rd=0.95:0.07 / mixed_ref=1 / me_range=48 / chroma_me=1 / trellis=2 / 8x8dct=1 / cqm=0 / deadzone=21,11 / fast_pskip=1 / chroma_qp_offset=-3 / threads=6 / lookahead_threads=1 / sliced_threads=0 / nr=0 / decimate=1 / interlaced=0 / bluray_compat=0 / constrained_intra=0 / bframes=11 / b_pyramid=2 / b_adapt=2 / b_bias=0 / direct=3 / weightb=1 / open_gop=0 / weightp=2 / keyint=240 / keyint_min=23 / scenecut=40 / intra_refresh=0 / rc_lookahead=40 / rc=2pass / mbtree=0 / bitrate=1791 / ratetol=1.0 / qcomp=0.60 / qpmin=0 / qpmax=69 / qpstep=4 / cplxblur=20.0 / qblur=0.5 / vbv_maxrate=50000 / vbv_bufsize=62500 / nal_hrd=none / filler=0 / ip_ratio=1.40 / pb_ratio=1.30 / aq=1:1.00
Язык : English
Default : Да
Forced : Нет

Аудио #1
Идентификатор : 2
Формат : AC-3
Формат/Информация : Audio Coding 3
Расширение режима : CM (complete main)
Параметр Endianness формата : Big
Идентификатор кодека : A_AC3
Продолжительность : 1 ч. 41 м.
Вид битрейта : Постоянный
Битрейт : 384 Кбит/сек
Каналы : 6 каналов
Расположение каналов : Front: L C R, Side: L R, LFE
Частота : 48,0 КГц
Частота кадров : 31,250 кадров/сек (1536 spf)
Битовая глубина : 16 бит
Метод сжатия : С потерями
Размер потока : 280 Мбайт (16%)
Заголовок : DUB [iTunes]
Язык : Russian
Default : Да
Forced : Нет

Аудио #2
Идентификатор : 3
Формат : AC-3
Формат/Информация : Audio Coding 3
Расширение режима : CM (complete main)
Параметр Endianness формата : Big
Идентификатор кодека : A_AC3
Продолжительность : 1 ч. 42 м.
Вид битрейта : Постоянный
Битрейт : 192 Кбит/сек
Каналы : 2 канала
Расположение каналов : Front: L R
Частота : 48,0 КГц
Частота кадров : 31,250 кадров/сек (1536 spf)
Битовая глубина : 16 бит
Метод сжатия : С потерями
Размер потока : 141 Мбайт (8%)
Заголовок : MVO [HDRezka Studio]
Язык : Russian
Default : Нет
Forced : Нет

Текст
Идентификатор : 4
Формат : UTF-8
Идентификатор кодека : S_TEXT/UTF8
Идентификатор кодека/Информация : UTF-8 Plain Text
Продолжительность : 1 ч. 41 м.
Битрейт : 58 бит/сек
Count of elements : 1631
Размер потока : 43,1 Кбайт (0%)
Заголовок : Full
Язык : English
Default : Нет
Forced : Нет

Меню
00:00:00.000 : en:1
00:11:58.009 : en:2
00:23:36.749 : en:3
00:34:17.264 : en:4
00:44:53.942 : en:5
00:59:16.179 : en:6
01:12:11.996 : en:7
01:22:51.635 : en:8
01:39:02.897 : en:9

pb.wtf



Скачать Безумный куш через торрент http://c.radikal.ru/c20/1907/e8/1a1b66de33ec.jpg Скачать фильм Безумный куш через торрент бесплантно в хорошем качестве Описание: В центре сюжета оказывается Эрик, который, несмотря на протесты жены, продолжает практически впустую тратить своё время, работая ... 8.9 10 7
Торрент: Зарегистрирован [2019-07-29 08:49] · скачан: 135 раз
Статус: √ проверено
Размер: 1.69 GB
Как cкачать? Как скачать Безумный куш через торрент | qTorrent

% Раздел Тема Автор DL S | L
Фильмы (WEB-DL 720p, 1080p) [ 3.95 GB ] Безумный куш / Опасная / Danger One [2018 WEB-DL 1080p] +MVO [HDRezka Studio] bober100 Скачать
3 | 0
Фильмы 2018 [DVDrip, WEB-DLRip, HDrip] (DUB, MVO) [ 1.46 GB ] Безумный куш / Опасная / Danger One [2018 WEB-DLRip] bober100 Скачать
3 | 0

28-11-2019 20:33  

Отключить всю рекламу на сайте

    Дорогой пользователь! Огромная просьба, поблагодарите релизера, оцените раздачу и оставьте свои комментарий, если Вы скачали Безумный куш через торрент бесплатно! Внесите свою лепту в развитие PiratBit!
    Комментировать посты могут только пользователи прошедшие не сложную регистрацию
    Показать сообщения:    

    Безумный куш через торрент
    Скачать бесплатно Безумный куш
    Безумный куш скачать торрент
    Безумный куш смотреть онлайн
    Cкачать фильм Безумный куш бесплатно
    Безумный куш скачать торрент в хорошем качестве
    Безумный куш смотреть онлайн бесплатно в хорошем качестве


    Вы не можете начинать темы
    Вы не можете отвечать на сообщения
    Вы не можете редактировать свои сообщения
    Вы не можете удалять свои сообщения
    Вы не можете голосовать в опросах
    Вы не можете прикреплять файлы к сообщениям
    Вы можете скачивать файлы