2 сезон

iTunes

MVO

1

2 сезон

iTunes

iTunes

1 сезон

RePack

30

Ultimate

ВАЖНО

ИГРА 18+

pack

RePack

MK11
pack

Легкие деньги

RePack

jed

RePack

fifa19

RePack

RDR2

RePack

NEED FOR SPEED™ PAYBACK

4 сезон

9 сезон

Бесстыжие 9 сезон

Все сериалы

все сериалы на PB.wtf

RePack

FAR CRY 5

Anonymous, добрый вечер, мы не успеваем собрать деньги на оплату серверов за декабрь и январь, помогите нам пожалуйста в это трудное время. В качестве благодарности мы отключим Вам всю рекламу на сайте (укажите свой ник в строку Ваше имя)!

×
  
Magnet ссылка

BBC: Человеческая Вселенная / Human Universe / Сезон: 1 / Серии: 1-5 из 5 (Эндрю Коэн) [2014, документальный, BDRip 1080p] DVO [Омикрон] pb.wtf

BBC: Человеческая Вселенная через торрент pb.wtf

Размер: 15.19 GB | Добавлен: 1 год 5 мес. назад | Торрент скачан:29 раз
Скачать  

29-07-2019 12:13 BBC: Человеческая Вселенная Скачать торрент  

BBC: Человеческая Вселенная / Human Universe
Год выпуска: 2014
Страна: Великобритания
Жанр: документальный
Продолжительность: ~00:60:00
Перевод: Профессиональный (двухголосый) | студия «Омикрон»
Субтитры: английские

Режиссер: Эндрю Коэн

rating

В ролях: Брайан Кокс

Описание: Профессор Брайан Кокс задаст самые важные вопросы какие только мы можем задать. Одни ли мы? Почему мы здесь? Какое наше будущее? Присоединитесь к нему в потрясающем торжестве жизни человека, как он исследует свои истоки, наше место и нашу судьбу во Вселенной.

Качество: BDRip 1080p
Формат: MKV

Видео: 1920x1080, 25 fps, ~6000-8000 kbps
Аудио#1: Russian: АС3, 2 ch, 224 kbps, 48 kHz
Аудио#2: English: АС3, 2 ch, 224 kbps, 48 kHz
1 - Apeman Spaceman / Человек умелый - Человек космический
Брайан Кокс рассматривает нашу историю от обезьян к рождению цивилизации, а затем её путь к звездам.
Brian Cox charts our story from apes to the birth of civilization and then to the stars.

2 - Why Are We Here? / Почему мы здесь?
Брайан Кокс решает вопрос, что объединяет почти 7 миллиардов человек на Земле и почему мы здесь?
Brian Cox tackles the question that unites the 7 billion people on Earth, why are we here?

3 - Are We Alone? / Одиноки ли мы?
В галактике более чем 200 млрд звездных систем, Брайан Кокс задается вопросом - одниноки ли мы?
In a galaxy with over 200 billion star systems, Brian Cox ask the question - are we alone?

4 - A Place In Space And Time / Наше место, в пространстве и времени
Брайан Кокс рассказывает о том, как мы пришли к понимаю, что мы не в центре вселенной.
Brian Cox looks at how we came to understand we are not at the centre of the universe.

5 - What Is Our Future? / Каково наше будущее?
Брайан завершает своё исследование, спрашивая, кто же следующий за обезьяной, которая смогла выйти в космос?
Brian concludes his exploration by asking, what next for the ape that went to space?

скриншот  скриншот  скриншот  скриншот  скриншот  

Общее
Уникальный идентификатор : 189731404196258561520567663592047110560 (0x8EBCF07435B73E0A18D13AB945A3E9A0)
Полное имя : D:\BBC.Human.Universe.2014.BDRip.1080p\Episode 1 - Apeman Spaceman.mkv
Формат : Matroska
Версия формата : Version 4 / Version 2
Размер файла : 2,72 Гбайт
Продолжительность : 59 м. 2 с.
Общий поток : 6586 Кбит/сек
Название фильма : Create by DeTorquemada for HDCLUB
Дата кодирования : UTC 2019-07-29 11:26:06
Программа кодирования : mkvmerge v35.0.0 ('All The Love In The World') 64-bit
Библиотека кодирования : libebml v1.3.9 + libmatroska v1.5.2

Видео
Идентификатор : 1
Формат : AVC
Формат/Информация : Advanced Video Codec
Профиль формата : High@L4.1
Параметр CABAC формата : Да
Параметр RefFrames формата : 4 кадра
Идентификатор кодека : V_MPEG4/ISO/AVC
Продолжительность : 59 м. 2 с.
Битрейт : 6007 Кбит/сек
Ширина : 1920 пикселей
Высота : 1080 пикселей
Соотношение сторон : 16:9
Режим частоты кадров : Постоянный
Частота кадров : 25,000 кадров/сек
Цветовое пространство : YUV
Субдискретизация насыщенности : 4:2:0
Битовая глубина : 8 бит
Тип развёртки : Прогрессивная
Бит/(Пиксели*Кадры) : 0.116
Размер потока : 2,48 Гбайт (91%)
Библиотека кодирования : x264 core 157 r2935 545de2f
Настройки программы : cabac=1 / ref=4 / deblock=1:-1:-1 / analyse=0x3:0x133 / me=umh / subme=10 / psy=1 / psy_rd=1.00:0.15 / mixed_ref=1 / me_range=24 / chroma_me=1 / trellis=2 / 8x8dct=1 / cqm=0 / deadzone=21,11 / fast_pskip=1 / chroma_qp_offset=-3 / threads=6 / lookahead_threads=1 / sliced_threads=0 / nr=0 / decimate=1 / interlaced=0 / bluray_compat=0 / constrained_intra=0 / bframes=8 / b_pyramid=2 / b_adapt=2 / b_bias=0 / direct=3 / weightb=1 / open_gop=0 / weightp=2 / keyint=250 / keyint_min=25 / scenecut=40 / intra_refresh=0 / rc_lookahead=60 / rc=crf / mbtree=1 / crf=19.0 / qcomp=0.60 / qpmin=0 / qpmax=69 / qpstep=4 / vbv_maxrate=62500 / vbv_bufsize=78125 / crf_max=0.0 / nal_hrd=none / filler=0 / ip_ratio=1.40 / aq=1:1.00
Язык : English
Default : Да
Forced : Нет
Цветовой диапазон : Limited
Основные цвета : BT.709
Характеристики трансфера : BT.709
Коэффициенты матрицы : BT.709

Аудио #1
Идентификатор : 2
Формат : AC-3
Формат/Информация : Audio Coding 3
Расширение режима : CM (complete main)
Параметр Endianness формата : Big
Идентификатор кодека : A_AC3
Продолжительность : 59 м. 2 с.
Вид битрейта : Постоянный
Битрейт : 224 Кбит/сек
Каналы : 2 канала
Расположение каналов : Front: L R
Частота : 48,0 КГц
Частота кадров : 31,250 кадров/сек (1536 spf)
Метод сжатия : С потерями
Размер потока : 94,6 Мбайт (3%)
Язык : Russian
Default : Да
Forced : Нет

Аудио #2
Идентификатор : 3
Формат : AC-3
Формат/Информация : Audio Coding 3
Расширение режима : CM (complete main)
Параметр Endianness формата : Big
Идентификатор кодека : A_AC3
Продолжительность : 59 м. 2 с.
Вид битрейта : Постоянный
Битрейт : 224 Кбит/сек
Каналы : 2 канала
Расположение каналов : Front: L R
Частота : 48,0 КГц
Частота кадров : 31,250 кадров/сек (1536 spf)
Метод сжатия : С потерями
Размер потока : 94,6 Мбайт (3%)
Язык : English
Default : Нет
Forced : Нет

Текст
Идентификатор : 4
Формат : UTF-8
Идентификатор кодека : S_TEXT/UTF8
Идентификатор кодека/Информация : UTF-8 Plain Text
Язык : English
Default : Нет
Forced : Нет

Меню
00:00:00.000 : en:
00:09:04.720 : en:
00:21:07.640 : en:
00:32:47.719 : en:
00:46:49.800 : en:
00:59:02.000 : en:

pb.wtf



Скачать BBC: Человеческая Вселенная через торрент http://img.lostpic.net/orig_images/6/4/7/647f092506e0d7187e51b6b8c336e575.jpg Скачать фильм BBC: Человеческая Вселенная через торрент бесплантно в хорошем качестве Описание: Профессор Брайан Кокс задаст самые важные вопросы какие только мы можем задать. Одни ли мы? Почему мы здесь? Какое наше будущее? ... 10 10 2
Торрент: Зарегистрирован [2019-07-29 12:13] · скачан: 29 раз
Статус: √ проверено
Размер: 15.19 GB
Как cкачать? Как скачать BBC: Человеческая Вселенная через торрент | UTorrent

28-11-2019 20:33  

Отключить всю рекламу на сайте

    Дорогой пользователь! Огромная просьба, поблагодарите релизера, оцените раздачу и оставьте свои комментарий, если Вы скачали BBC: Человеческая Вселенная через торрент бесплатно! Внесите свою лепту в развитие PiratBit!
    Комментировать посты могут только пользователи прошедшие не сложную регистрацию
    Показать сообщения:    

    BBC: Человеческая Вселенная через торрент
    Скачать бесплатно BBC: Человеческая Вселенная
    BBC: Человеческая Вселенная скачать торрент
    BBC: Человеческая Вселенная смотреть онлайн
    Cкачать фильм BBC: Человеческая Вселенная бесплатно
    BBC: Человеческая Вселенная скачать торрент в хорошем качестве
    BBC: Человеческая Вселенная смотреть онлайн бесплатно в хорошем качестве


    Вы не можете начинать темы
    Вы не можете отвечать на сообщения
    Вы не можете редактировать свои сообщения
    Вы не можете удалять свои сообщения
    Вы не можете голосовать в опросах
    Вы не можете прикреплять файлы к сообщениям
    Вы можете скачивать файлы