Ссылка на приватное зеркало всего за 1$. Внимание количество ограничено!!!

iTunes

1+1

iTunes

мы

WEB-DL

1

iTunes

Чернобыль

iTunes

Ральф против интернета

Лицензия

ПШазам

Лицензия

Оно 2

Лицензия

30
pack

Вам бонус

ВАЖНО

!!Акция!!

Alien_RageХит недели

RePack

Resident Evil 21

ИГРА 18+

pack

RePack

jed

!!Акция!!

Alien_Rage

RePack

fifa19

RePack

Assassins Creed: Odyssey

RePack

NEED FOR SPEED™ PAYBACK

3 сезон

9 сезон

Бесстыжие 9 сезон

Все сериалы

все сериалы на PB.wtf

RePack

FAR CRY 5
Ребята, катастрофически не хватает 1900р. для оплаты серверов за Октябрь (всвязи с блокировками трафик упал в 3 раза), 1-2р., выручайте.
  

Святая Джуди / Saint Judy (Sean Hanish) [2018, драма, биография, WEB-DLRip-AVC] DUB [iTunes] pb.wtf

Святая Джуди через торрент pb.wtf

Раздают: 3 [ 0 KB/s ]
Размер: 1.85 GB | Добавлен: 4 мес. 15 д. назад | Торрент скачан:29 раз
Скачать  

29-07-2019 12:36 Святая Джуди Скачать торрент  

Святая Джуди / Saint Judy Год выпуска: 2018
Страна: США
Жанр: драма, биография
Продолжительность: 01:45:56
Перевод: Дублированный | iTunes
Субтитры: Английские

Режиссер: Sean Hanish

rating

В ролях: Мишель Монахэн, Лим Лубани, Коммон, Альфред Молина, Элфри Вудард, Бен Шнетцер, Гэбриел Бейтман, Валид Зуэйтер, Майкелти Уильямсон, Питер Краузе

Описание: За основу сюжета этой реальной истории положены биографические факты из жизни адвоката Джуди Вуд. Эту мать-одиночку по праву можно считать святой, ведь она помогла не одному человеку в решении спорных вопросов. Женщина переезжает в Лос-Анджелес, чтобы изучить право. Очень скоро она становится адвокатом иммиграционных служб, которая помогла многим несчастным беженкам обрести безопасность в США. Одной из первых Джуди спасла афганскую учительницу, бежавшую от преследования талибов после открытия школы для девочек. Это дело рассматривалось в Апелляционном суде девятого округа.

Качество: WEB-DLRip-AVC
Формат: MKV

Видео: 1024x554 (1.85:1), 23,976 fps, x264 ~2 114 kbps avg, 0.155 bit/pixel
Аудио: 48 kHz, AC3 Dolby Digital, 3/2 (L,C,R,l,r) + LFE ch, ~384.00 kbps avg | RUS (iTunes)
скриншот  скриншот  скриншот  скриншот  

Общее
Уникальный идентификатор : 90035830810102021449432859615402381217 (0x43BC452FEC44F3B9BEE9A8B86D2FCFA1)
Полное имя : F:\OlLanDGroup\Saint.Judy.2018.WEB-DLRip(AVC).OlLanDGroup.mkv
Формат : Matroska
Версия формата : Version 4 / Version 2
Размер файла : 1,85 Гбайт
Продолжительность : 1 ч. 45 м.
Общий поток : 2499 Кбит/сек
Название фильма : Saint Judy 2018 #TorpedoUK#
Дата кодирования : UTC 2019-07-29 12:00:49
Программа кодирования : mkvmerge v29.0.0 ('Like It Or Not') 64-bit
Библиотека кодирования : libebml v1.3.6 + libmatroska v1.4.9

Видео
Идентификатор : 1
Формат : AVC
Формат/Информация : Advanced Video Codec
Профиль формата : High@L4.1
Параметр CABAC формата : Да
Параметр ReFrames формата : 10 кадров
Идентификатор кодека : V_MPEG4/ISO/AVC
Продолжительность : 1 ч. 45 м.
Битрейт : 2114 Кбит/сек
Ширина : 1024 пикселя
Высота : 554 пикселя
Соотношение сторон : 1,85:1
Режим частоты кадров : Постоянный
Частота кадров : 23,976 (24000/1001) кадра/сек
Цветовое пространство : YUV
Субдискретизация насыщенности : 4:2:0
Битовая глубина : 8 бит
Тип развёртки : Прогрессивная
Бит/(Пиксели*Кадры) : 0.155
Размер потока : 1,56 Гбайт (85%)
Библиотека кодирования : x264 core 146 r2538 121396c
Настройки программы : cabac=1 / ref=10 / deblock=1:-2:-3 / analyse=0x3:0x113 / me=umh / subme=10 / psy=1 / psy_rd=0.93:0.08 / mixed_ref=1 / me_range=48 / chroma_me=1 / trellis=2 / 8x8dct=1 / cqm=0 / deadzone=21,11 / fast_pskip=1 / chroma_qp_offset=-3 / threads=6 / lookahead_threads=1 / sliced_threads=0 / nr=0 / decimate=1 / interlaced=0 / bluray_compat=0 / constrained_intra=0 / bframes=11 / b_pyramid=2 / b_adapt=2 / b_bias=0 / direct=3 / weightb=1 / open_gop=0 / weightp=2 / keyint=240 / keyint_min=23 / scenecut=40 / intra_refresh=0 / rc_lookahead=40 / rc=2pass / mbtree=0 / bitrate=2114 / ratetol=1.0 / qcomp=0.60 / qpmin=0 / qpmax=69 / qpstep=4 / cplxblur=20.0 / qblur=0.5 / vbv_maxrate=50000 / vbv_bufsize=62500 / nal_hrd=none / filler=0 / ip_ratio=1.40 / pb_ratio=1.30 / aq=1:1.00
Язык : English
Default : Да
Forced : Нет

Аудио
Идентификатор : 2
Формат : AC-3
Формат/Информация : Audio Coding 3
Расширение режима : CM (complete main)
Параметр Endianness формата : Big
Идентификатор кодека : A_AC3
Продолжительность : 1 ч. 45 м.
Вид битрейта : Постоянный
Битрейт : 384 Кбит/сек
Каналы : 6 каналов
Расположение каналов : Front: L C R, Side: L R, LFE
Частота : 48,0 КГц
Частота кадров : 31,250 кадров/сек (1536 spf)
Битовая глубина : 16 бит
Метод сжатия : С потерями
Размер потока : 291 Мбайт (15%)
Заголовок : [DUB] DD 5.1 @ 384 kbps (iTunes)
Язык : Russian
Default : Да
Forced : Нет

Текст
Идентификатор : 3
Формат : UTF-8
Идентификатор кодека : S_TEXT/UTF8
Идентификатор кодека/Информация : UTF-8 Plain Text
Продолжительность : 1 ч. 39 м.
Битрейт : 57 бит/сек
Count of elements : 1383
Размер потока : 41,5 Кбайт (0%)
Заголовок : Агдд
Язык : English
Default : Нет
Forced : Нет

Меню
00:00:00.000 : en:Глава 1
00:06:37.355 : en:Глава 2
00:14:18.149 : en:Глава 3
00:20:19.593 : en:Глава 4
00:28:18.989 : en:Глава 5
00:36:28.353 : en:Глава 6
00:45:03.868 : en:Глава 7
00:55:29.493 : en:Глава 8
01:01:35.650 : en:Глава 9
01:11:24.572 : en:Глава 10
01:18:40.633 : en:Глава 11
01:25:41.929 : en:Глава 12
01:31:51.632 : en:Глава 13
01:40:30.776 : en:Глава 14

pb.wtf



Скачать Святая Джуди через торрент https://i87.fastpic.ru/big/2019/0729/85/4c8422865fb9781870a4c6b0360b9785.jpg Скачать фильм Святая Джуди через торрент бесплантно в хорошем качестве Описание: За основу сюжета этой реальной истории положены биографические факты из жизни адвоката Джуди Вуд. Эту мать-одиночку по праву ... 10 10 4
Торрент: Зарегистрирован [2019-07-29 12:36] · скачан: 29 раз
Статус: √ проверено
Размер: 1.85 GB
Как cкачать? Как скачать Святая Джуди через торрент | qTorrent

% Раздел Тема Автор DL S | L
Фильмы (WEB-DL 720p, 1080p) [ 4.41 GB ] Святая Джуди / Saint Judy [2018 биография WEB-DL 1080p] bober100 Скачать
2 | 0
Фильмы 2018 [DVDrip, WEB-DLRip, HDrip] (DUB, MVO) [ 1.46 GB ] Святая Джуди / Saint Judy [2018 биография BDRip] bober100 Скачать
4 | 0

28-11-2019 20:33  

Отключить всю рекламу на сайте

    Дорогой пользователь! Огромная просьба, поблагодарите релизера, оцените раздачу и оставьте свои комментарий, если Вы скачали Святая Джуди через торрент бесплатно! Внесите свою лепту в развитие PiratBit!
    Комментировать посты могут только пользователи прошедшие не сложную регистрацию
    Показать сообщения:    

    Святая Джуди через торрент
    Скачать бесплатно Святая Джуди
    Святая Джуди скачать торрент
    Святая Джуди смотреть онлайн
    Cкачать фильм Святая Джуди бесплатно
    Святая Джуди скачать торрент в хорошем качестве
    Святая Джуди смотреть онлайн бесплатно в хорошем качестве


    Вы не можете начинать темы
    Вы не можете отвечать на сообщения
    Вы не можете редактировать свои сообщения
    Вы не можете удалять свои сообщения
    Вы не можете голосовать в опросах
    Вы не можете прикреплять файлы к сообщениям
    Вы можете скачивать файлы