новый адрес
Ссылка на приватное зеркало всего за 1$. Внимание количество ограничено!!!

iTunes

1+1

iTunes

мы

iTunes

1

iTunes

Чернобыль

iTunes

Ральф против интернета

Лицензия

ПШазам

Лицензия

Оно 2

Лицензия

30
pack

Вам бонус

ВАЖНО

!!Акция!!

Alien_RageХит недели

RePack

Resident Evil 21

ИГРА 18+

pack

RePack

jed

!!Акция!!

Alien_Rage

RePack

fifa19

RePack

Assassins Creed: Odyssey

RePack

NEED FOR SPEED™ PAYBACK

3 сезон

9 сезон

Бесстыжие 9 сезон

Все сериалы

все сериалы на PB.wtf

RePack

FAR CRY 5
Ребята, катастрофически не хватает 1900р. для оплаты серверов за Октябрь (всвязи с блокировками трафик упал в 3 раза), 1-2р., выручайте.
  

Что у них было / What They Had (Элизабет Чомко)(AMAZON) [2018 г., драма, WEB-DLRip, Дубляж iTunes] pb.wtf

Что у них было через торрент pb.wtf

Размер: 698 MB | Добавлен: 4 мес. 7 д. назад | Торрент скачан:14 раз
Скачать  

29-07-2019 18:29 Что у них было Скачать торрент  

Что у них было / What They Had
Год выпуска: 2018
Страна: США / Unified Pictures, Bona Fide Productions, Look to the Sky Films
Жанр: драма
Продолжительность: 01:41:03
Перевод: Дубляж (iTunes)

Режиссер: Элизабет Чомко

rating

В ролях: Хилари Суэнк, Майкл Шеннон, Роберт Форстер, Блайт Даннер, Таисса Фармига, Джош Лукас, Сара Сазерленд, Мэрилин Доддс Фрэнк, Эйми Гарсиа, Уильям Смайли

Описание: Бриджит Эртц возвращается в родной город Чикаго после того как её мать Рут, страдающая болезнью Альцгеймера, теряется в метель перед Рождеством. Вместе с братом они пытаются уговорить их отца отдать Рут в дом престарелых.

Качество: WEB-DLRip
Формат: AVI
Видео кодек: XviD
Аудио кодек: MP3
Видео: 672x280 (2.40:1), 23.976 fps, XviD build 50 ~828 kbps avg, 0.18 bit/pixel
Аудио: 48 kHz, MPEG Layer 3, 2 ch, ~128.00 kbps avg
скриншот   скриншот   скриншот   скриншот   скриншот   скриншот   скриншот   скриншот  

Общее
Полное имя : F:\ФИЛЬМЫ\Что у них было.2018.D.WEB-DLRip(AMAZON).avi
Формат : AVI
Формат/Информация : Audio Video Interleave
Размер файла : 698 Мбайт
Продолжительность : 1 ч. 41 м.
Общий поток : 966 Кбит/сек
Программа кодирования : VirtualDubMod 1.5.10.3 | www.virtualdub-fr.org || (build 2550/release)
Библиотека кодирования : VirtualDubMod build 2550/release

Видео
Идентификатор : 0
Формат : MPEG-4 Visual
Профиль формата : Advanced Simple@L5
Настройки формата : BVOP3 / GMC3 / QPel
Параметр BVOP формата : 3
Параметр QPel формата : Да
Параметр GMC формата : 3 точки перехода
Параметр матрицы формата : Default (MPEG)
Идентификатор кодека : XVID
Идентификатор кодека/Подсказка : XviD
Продолжительность : 1 ч. 41 м.
Битрейт : 828 Кбит/сек
Ширина : 672 пикселя
Высота : 280 пикселей
Соотношение сторон : 2,40:1
Частота кадров : 23,976 (24000/1001) кадра/сек
Цветовое пространство : YUV
Субдискретизация насыщенности : 4:2:0
Битовая глубина : 8 бит
Тип развёртки : Прогрессивная
Метод сжатия : С потерями
Бит/(Пиксели*Кадры) : 0.184
Размер потока : 599 Мбайт (86%)
Библиотека кодирования : XviD 1.2.1 (UTC 2008-12-04)

Аудио
Идентификатор : 1
Формат : MPEG Audio
Версия формата : Version 1
Профиль формата : Layer 3
Настройки формата : Joint stereo
Идентификатор кодека : 55
Идентификатор кодека/Подсказка : MP3
Продолжительность : 1 ч. 41 м.
Вид битрейта : Постоянный
Битрейт : 128 Кбит/сек
Каналы : 2 канала
Частота : 48,0 КГц
Частота кадров : 41,667 кадра/сек (1152 SPF)
Метод сжатия : С потерями
Размер потока : 92,5 Мбайт (13%)
Выравнивание : Соединение по промежуткам
Продолжительность промежутка : 42 мс. (1,00 видеокадр)
Время предзагрузки промежутка : 504 мс.
Библиотека кодирования : LAME3.99r
Настройки программы : -m j -V 4 -q 2 -lowpass 17 -b 128

pb.wtf



Скачать Что у них было через торрент http://pic1.kartinco.top/images/12/gqz9c.jpg Скачать фильм Что у них было через торрент бесплантно в хорошем качестве Описание: Бриджит Эртц возвращается в родной город Чикаго после того как её мать Рут, страдающая болезнью Альцгеймера, теряется в метель ... 10 10 3
Торрент: Зарегистрирован [2019-07-29 18:29] · скачан: 14 раз
Статус: √ проверено
Размер: 698 MB
Как cкачать? Как скачать Что у них было через торрент | qTorrent

% Раздел Тема Автор DL S | L
Фильмы (WEB-DL 720p, 1080p) [ 6.02 GB ] Что у них было / What They Had [2018 WEB-DL 1080p] +MVO [HDRezka Studio] bober100 Скачать
1 | 0
Фильмы 2018 [DVDrip, WEB-DLRip, HDrip] (DUB, MVO) [ 1.46 GB ] Что у них было / What They Had [2018 WEB-DLRip] bober100 Скачать
1 | 0
Отключить всю рекламу на сайте
    Дорогой пользователь! Огромная просьба, поблагодарите релизера, оцените раздачу и оставьте свои комментарий, если Вы скачали Что у них было через торрент бесплатно! Внесите свою лепту в развитие PiratBit!
    Комментировать посты могут только пользователи прошедшие не сложную регистрацию
    Показать сообщения:    

    Что у них было через торрент
    Скачать бесплатно Что у них было
    Что у них было скачать торрент
    Что у них было смотреть онлайн
    Cкачать фильм Что у них было бесплатно
    Что у них было скачать торрент в хорошем качестве
    Что у них было смотреть онлайн бесплатно в хорошем качестве


    Вы не можете начинать темы
    Вы не можете отвечать на сообщения
    Вы не можете редактировать свои сообщения
    Вы не можете удалять свои сообщения
    Вы не можете голосовать в опросах
    Вы не можете прикреплять файлы к сообщениям
    Вы можете скачивать файлы