новый адрес
Ссылка на приватное зеркало всего за 1$. Внимание количество ограничено!!!

iTunes

1+1

iTunes

мы

WEB-DL

1

iTunes

Чернобыль

iTunes

Ральф против интернета

Лицензия

ПШазам

Лицензия

Оно 2

Лицензия

30
pack

Вам бонус

ВАЖНО

!!Акция!!

Alien_RageХит недели

RePack

Resident Evil 21

ИГРА 18+

pack

RePack

jed

!!Акция!!

Alien_Rage

RePack

fifa19

RePack

Assassins Creed: Odyssey

RePack

NEED FOR SPEED™ PAYBACK

3 сезон

9 сезон

Бесстыжие 9 сезон

Все сериалы

все сериалы на PB.wtf

RePack

FAR CRY 5
Ребята, катастрофически не хватает 1900р. для оплаты серверов за Октябрь (всвязи с блокировками трафик упал в 3 раза), 1-2р., выручайте.
  

Пенниуорт / Pennyworth / Сезон: 1 / Серии: 1-10 из 10 (Роб Бэйли, Билл Иглз, Дэнни Кэннон) [2019, боевик, драма, криминал, WEB-DL 1080p] [DUB] (Lucky Production) pb.wtf

Пенниуорт через торрент pb.wtf

Размер: 29.88 GB | Добавлен: 2 мес. 8 д. назад | Торрент скачан:5 раз
Скачать  

30-07-2019 09:50 Пенниуорт Скачать торрент  



Пенниуорт / Pennyworth



Год выпуска: 2019
Страна: США
Жанр: Боевик, драма, криминал
Продолжительность: 01:11:00

Перевод: Профессиональный (дублированный) Lucky Production по заказу Кинопоиск

Режиссёр: Роб Бэйли, Билл Иглз, Дэнни Кэннон

В ролях: Джек Бэннон, Палома Фэйт, Бен Элдридж, Джейсон Флеминг, Хэйнсли Ллойд Беннетт, Дороти Эткинсон, Эмма Коррин, Райан Флетчер, Иан Палстон-Дэвис, Ники Виккери

Описание: "Пенниуорт" - это криминальная драма канала Epix, основанная на персонажах графических новелл DC Comics. Однако история берет начало не в Готэме или Централ-сити, где происходят события комиксов, а в Лондоне 1960-х годов. В центре сюжета - Альфред Пенниуорт, бывший солдат Особой воздушной службы Великобритании. После завершения военной карьеры харизматичный молодой человек в исполнении Джека Бэннона ищет новое предназначение и знакомится с Томасом Уэйном - отцом будущего Бэтмена. "Пенниуорт" - это увлекательная и стильная предыстория становления главного сторонника, помощника и опекуна Брюса Уэйна, и его приключения определенно заслуживают особого внимания. Исполнительными продюсерами и сценаристами сериала выступили Бруно Хеллер ("Рим") и Дэнни Кэннон ("Люди будущего"), уже зарекомендовавшие себя работой над "Готэмом".

Сюжет: После демобилизации из армии Альфред Пенниуорт (Джек Бэннон) пытается устроиться среди гражданских, и, что часто случается с военными, начинает как вышибала в ночном клубе. Эта приземленная работа вызывает большое неудовольствие его отца, профессионального дворецкого. Продолжая мечтать о чем-то большем, Альфред встречает Томаса Уэйна (Бен Элдридж) - прямолинейного финансового аналитика, расследующего экономические преступления и заговоры. Пенниуорт освобождает сестру нового знакомого от подозрительных личностей, чем демонстрирует, что бывших солдат не бывает, как бы ему ни хотелось забыть о своем военном прошлом. Тем более что еще не время терять хватку: безопасности королевства угрожают тайные организации, которые собираются изменить будущее британского государства и всего мира.


Качество: WEB-DL 1080p | Pennyworth.S01.1080p.AMZN.WEB-DL.DDP5.1.H.264-NTG
Контейнер: MKV
Видео: AVC, 1920x1080p (1.78:1), 23.976 fps, ~6000 kbps, ~0.119 bit/pixel
Аудио №1: Русский AC3 2.0, 48 kHz, 192 kbps
Аудио №2: Английский E-AC3 5.1, 48 kHz, 640 kbps
Субтитры: Русские (Full), английские (Full, SDH)
Реклама: отсутствует


Работа со звуком zgurvas@eniahd
01 Пилот | Pilot

Анонс:

02 The Landlord's Daughter 08/04/2019
03 Martha Kane 08/11/2019
04 Lady Penelope 08/18/2019
05 Shirley Bassey 08/25/2019
06 Cilla Black 09/01/2019
07 Julie Christie 09/08/2019
08 Sandie Shaw 09/15/2019
09 Alma Coogan 09/22/2019
10 Marianne Faithful 09/29/2019

Код:

Общее
Уникальный идентификатор                 : 127999319831103834252633417141920143955 (0x604BC5B4F4475F5B1BCDAE2D857B1A53)
Полное имя                               : F:\RELEASE\Pennyworth.S01.1080p.WEB-DL.DUB.EniaHD\Pennyworth.S01E01.Pilot.1080p.WEB-DL.DUB.EniaHD.mkv
Формат                                   : Matroska
Версия формата                           : Version 4
Размер файла                             : 3,39 Гбайт
Продолжительность                        : 1 ч. 11 м.
Общий поток                              : 6773 Кбит/сек
Название фильма                          : Пилот
Дата кодирования                         : UTC 2019-07-30 09:00:50
Программа кодирования                    : mkvmerge v34.0.0 ('Sight and Seen') 64-bit
Библиотека кодирования                   : libebml v1.3.7 + libmatroska v1.5.0
Обложка                                  : Yes
Attachments                              : cover.pennyworth.jpg

Видео
Идентификатор                            : 1
Формат                                   : AVC
Формат/Информация                        : Advanced Video Codec
Профиль формата                          : High@L4
Настройки формата                        : CABAC / 4 Ref Frames
Параметр CABAC формата                   : Да
Параметр RefFrames формата               : 4 кадра
Идентификатор кодека                     : V_MPEG4/ISO/AVC
Продолжительность                        : 1 ч. 11 м.
Вид битрейта                             : Постоянный
Битрейт                                  : 5937 Кбит/сек
Номинальный битрейт                      : 10000 Кбит/сек
Ширина                                   : 1920 пикселей
Высота                                   : 1080 пикселей
Соотношение сторон                       : 16:9
Режим частоты кадров                     : Постоянный
Частота кадров                           : 23,976 (24000/1001) кадра/сек
Цветовое пространство                    : YUV
Субдискретизация насыщенности            : 4:2:0
Битовая глубина                          : 8 бит
Тип развёртки                            : Прогрессивная
Бит/(Пиксели*Кадры)                      : 0.119
Размер потока                            : 2,97 Гбайт (88%)
Заголовок                                : Pennyworth.S01E01.Pilot.1080p.WEB-DL.DUB.EniaHD
Язык                                     : English
Default                                  : Да
Forced                                   : Нет
Цветовой диапазон                        : Limited
Основные цвета                           : BT.709
Характеристики трансфера                 : BT.709
Коэффициенты матрицы                     : BT.709

Аудио #1
Идентификатор                            : 2
Формат                                   : AC-3
Формат/Информация                        : Audio Coding 3
Коммерческое название                    : Dolby Digital
Идентификатор кодека                     : A_AC3
Продолжительность                        : 1 ч. 11 м.
Вид битрейта                             : Постоянный
Битрейт                                  : 192 Кбит/сек
Каналы                                   : 2 канала
ChannelLayout                            : L R
Частота                                  : 48,0 КГц
Частота кадров                           : 31,250 кадров/сек (1536 SPF)
Битовая глубина                          : 16 бит
Метод сжатия                             : С потерями
Размер потока                            : 98,5 Мбайт (3%)
Заголовок                                : AC3 2.0 @ 192 kbps - DUB, Lucky Production
Язык                                     : Russian
ServiceKind/String                       : Complete Main
Default                                  : Да
Forced                                   : Нет

Аудио #2
Идентификатор                            : 3
Формат                                   : E-AC-3
Формат/Информация                        : Enhanced AC-3
Коммерческое название                    : Dolby Digital Plus
Идентификатор кодека                     : A_EAC3
Продолжительность                        : 1 ч. 11 м.
Вид битрейта                             : Постоянный
Битрейт                                  : 640 Кбит/сек
Каналы                                   : 6 каналов
ChannelLayout                            : L R C LFE Ls Rs
Частота                                  : 48,0 КГц
Частота кадров                           : 31,250 кадров/сек (1536 SPF)
Метод сжатия                             : С потерями
Размер потока                            : 328 Мбайт (9%)
Заголовок                                : E-AC3 5.1 640 kbps - Original
Язык                                     : English
ServiceKind/String                       : Complete Main
Default                                  : Нет
Forced                                   : Нет

Текст #1
Идентификатор                            : 4
Формат                                   : UTF-8
Идентификатор кодека                     : S_TEXT/UTF8
Идентификатор кодека/Информация          : UTF-8 Plain Text
Продолжительность                        : 1 ч. 10 м.
Битрейт                                  : 80 бит/сек
ElementCount                             : 576
Размер потока                            : 41,5 Кбайт (0%)
Заголовок                                : Full
Язык                                     : Russian
Default                                  : Нет
Forced                                   : Нет

Текст #2
Идентификатор                            : 5
Формат                                   : UTF-8
Идентификатор кодека                     : S_TEXT/UTF8
Идентификатор кодека/Информация          : UTF-8 Plain Text
Продолжительность                        : 1 ч. 10 м.
Битрейт                                  : 58 бит/сек
ElementCount                             : 1102
Размер потока                            : 30,2 Кбайт (0%)
Заголовок                                : Full
Язык                                     : English
Default                                  : Нет
Forced                                   : Нет

Текст #3
Идентификатор                            : 6
Формат                                   : UTF-8
Идентификатор кодека                     : S_TEXT/UTF8
Идентификатор кодека/Информация          : UTF-8 Plain Text
Продолжительность                        : 1 ч. 10 м.
Битрейт                                  : 62 бит/сек
ElementCount                             : 1208
Размер потока                            : 32,1 Кбайт (0%)
Заголовок                                : Full SDH
Язык                                     : English
Default                                  : Нет
Forced                                   : Нет

скриншот  скриншот  скриншот  
Когда раздача ведётся путём добавления новых серий, при каждом добавлении создётся новый торрент. Чтобы начать докачку новой серии, пользователям необходимо сделать следующее:
(1) остановить скачивание,
(2) удалить старый торрент у себя из клиента (старые серии удалять не надо),
(3) скачать новый торрент и запустить его у себя в клиенте вместо старого, при этом указать клиенту путь в старую папку, куда и должно происходить скачивание новых серий.
Ваш клиент при этом должен произвести хеширование (проверку) старой папки (если не производит сам - помогите ему сделать это), и будет докачивать только те серии, которых у вас ещё нет.Старые серии при этом не удаляются, а продолжают раздаваться!
Eсли вы уже удалили старые серии, то предотвратить повторную закачку старых серий можно, отжав галочку в соответсвующих местах при запуске нового торрента. По возможности, желательно не удалять старые серии как можно дольше, чтобы релизёр не столько продолжал раздавать старые серии, а смог сконцентрироваться на новых.
pb.wtf



Скачать Пенниуорт через торрент https://www.thetvdb.com/banners/graphical/5d017365688d4.jpg Скачать фильм Пенниуорт через торрент бесплантно в хорошем качестве Описание: "Пенниуорт" - это криминальная драма канала Epix, основанная на персонажах графических новелл DC Comics. Однако история берет ... 8 10 4
Торрент: Зарегистрирован [2019-10-01 10:41] · скачан: 5 раз
Статус: √ проверено
Размер: 29.88 GB
Как cкачать? Как скачать Пенниуорт через торрент | qTorrent

% Раздел Тема Автор DL S | L
Зарубежные сериалы [ 31.19 GB ] Пенниуорт / Pennyworth / Сезон: 1 / Серии: 1-10 из 10 [2019 WEB-DL 1080p] MVO [Lostfilm] bober100 Скачать
1 | 0
Зарубежные сериалы [ 17.45 GB ] Пенниуорт / Pennyworth / Сезон: 1 / Серии: 1-10 из 10 [2019 WEB-DL 720p] DUB [Lucky Production] +MVO [Lostfilm] bober100 Скачать
1 | 0
Зарубежные сериалы [ 31.19 GB ] Пенниуорт / Pennyworth / Сезон: 1 / Серии: 1-10 из 10 [2019 WEB-DL 1080p] [MVO] killermax2013 Скачать
1 | 0
Зарубежные сериалы [ 6.04 GB ] Пенниуорт / Pennyworth / Сезон: 1 / Серии: 1-10 из 10 [2019 WEBRip-AVC] [DVO] killermax2013 Скачать
2 | 0
Зарубежные сериалы [ 15.25 GB ] Пенниуорт / Pennyworth / Сезон: 1 / Серии: 1-10 из 10 [2019 WEB-DL 720p] [MVO] killermax2013 Скачать
1 | 0
Зарубежные сериалы [ 30.18 GB ] Пенниуорт / Pennyworth / Сезон: 1 / Серии: 1-10 из 10 [2019 WEB-DL 1080p] [MVO] killermax2013 Скачать
1 | 0
Зарубежные сериалы [ 7.85 GB ] Пенниуорт / Pennyworth / Сезон: 1 / Серии: 1-10 из 10 [2019 WEB-DLRip] killermax2013 Скачать
2 | 0

28-11-2019 20:33  

Отключить всю рекламу на сайте

    Дорогой пользователь! Огромная просьба, поблагодарите релизера, оцените раздачу и оставьте свои комментарий, если Вы скачали Пенниуорт через торрент бесплатно! Внесите свою лепту в развитие PiratBit!
    Комментировать посты могут только пользователи прошедшие не сложную регистрацию
    Показать сообщения:    

    Пенниуорт через торрент
    Скачать бесплатно Пенниуорт
    Пенниуорт скачать торрент
    Пенниуорт смотреть онлайн
    Cкачать фильм Пенниуорт бесплатно
    Пенниуорт скачать торрент в хорошем качестве
    Пенниуорт смотреть онлайн бесплатно в хорошем качестве


    Вы не можете начинать темы
    Вы не можете отвечать на сообщения
    Вы не можете редактировать свои сообщения
    Вы не можете удалять свои сообщения
    Вы не можете голосовать в опросах
    Вы не можете прикреплять файлы к сообщениям
    Вы можете скачивать файлы