Ссылка на приватное зеркало всего за 1$. Внимание количество ограничено!!!

iTunes

1+1

iTunes

мы

MV0

1

WEB-DLRip

Джокер

Пифагор

Ведьмак / The Witcher сериал

iTunes

ПШазам

iTunes

Оно 2

iTunes

30
pack

Вам бонус

ВАЖНО

!!Акция!!

Alien_RageХит недели

RePack

Resident Evil 21

ИГРА 18+

pack

RePack

jed

!!Акция!!

Alien_Rage

RePack

fifa19

RePack

Assassins Creed: Odyssey

RePack

NEED FOR SPEED™ PAYBACK

4 сезон

9 сезон

Бесстыжие 9 сезон

Все сериалы

все сериалы на PB.wtf

RePack

FAR CRY 5
  

Крайний космос / Final Space / Сезон: 2 / Серии: 1-13 из 13 (Олэн Роджерс / Olan Rogers) [2019, приключения, комедия, фантастика, WEB-DL 1080p] [MVO] (TVShows) pb.wtf

Крайний космос через торрент pb.wtf

Размер: 15.58 GB | Добавлен: 4 мес. 25 д. назад | Торрент скачан:20 раз
Скачать  

30-07-2019 16:56 Крайний космос Скачать торрент  

Крайний космос / Космический рубеж / Космо-Рубеж / Final Space Год выпуска: 2019
Страна: США
Жанр: Мультфильм, приключение, комедия, фантастика
Продолжительность серии: 1x ~00:22:00
Перевод: Профессиональный (многоголосый закадровый) | *TVShows*
Режиссёр: Олэн Роджерс / Olan Rogers
Роли озвучивали Митчелл Дэвис, Коути Гэлловэй, Олэн Роджерс, Джейк Сидвелл
Описание: Астронавт по имени Гэри и его уничтожающий планеты приятель, называемый себя Мункейк, приступают к путешествиям по космосу, чтобы разгадать тайну того, где вселенная заканчивается и действительно ли она существует.
rating скриншот  

Качество: WEB-DL 1080p (AMZN)
Формат: MKV

Видео: AVC, 1920x1080, 23,976 fps, 9 453 kb/s
Аудио 1: [RUS] 48 kHz, AC-3, 6ch, 384 Кбит/сек
Аудио 2: [ENG] 48 kHz, E-AC-3, 6ch, 640 Кбит/сек
субтитры: eng
General
Unique ID : 338442861302180636287590988323133891187 (0xFE9DB95EEB392A10FC7EE5E98D68A273)
Complete name : E:\Final.Space.S02.1080p.TVShows\Final.Space.S02E01.1080p.TVShows.mkv
Format : Matroska
Format version : Version 4 / Version 2
File size : 1.61 GiB
Duration : 21 min 32 s
Overall bit rate : 10.7 Mb/s
Encoded date : UTC 2019-07-30 09:59:59
Writing application : mkvmerge v33.1.0 ('Primrose') 64-bit
Writing library : libebml v1.3.7 + libmatroska v1.5.0

Video
ID : 1
Format : AVC
Format/Info : Advanced Video Codec
Format profile : High@L4
Format settings : CABAC / 4 Ref Frames
Format settings, CABAC : Yes
Format settings, RefFrames : 4 frames
Codec ID : V_MPEG4/ISO/AVC
Duration : 21 min 32 s
Bit rate mode : Constant
Bit rate : 9 453 kb/s
Nominal bit rate : 10 000 kb/s
Width : 1 920 pixels
Height : 1 080 pixels
Display aspect ratio : 16:9
Frame rate mode : Constant
Frame rate : 23.976 (24000/1001) FPS
Color space : YUV
Chroma subsampling : 4:2:0
Bit depth : 8 bits
Scan type : Progressive
Bits/(Pixel*Frame) : 0.190
Stream size : 1.42 GiB (88%)
Default : Yes
Forced : No
Color range : Limited
Color primaries : BT.709
Transfer characteristics : BT.709
Matrix coefficients : BT.709

Audio #1
ID : 2
Format : AC-3
Format/Info : Audio Coding 3
Format settings, Endianness : Big
Codec ID : A_AC3
Duration : 21 min 32 s
Bit rate mode : Constant
Bit rate : 384 kb/s
Channel(s) : 6 channels
Channel positions : Front: L C R, Side: L R, LFE
Sampling rate : 48.0 kHz
Frame rate : 31.250 FPS (1536 SPF)
Bit depth : 16 bits
Compression mode : Lossy
Stream size : 59.2 MiB (4%)
Title : TVShows
Language : Russian
Service kind : Complete Main
Default : Yes
Forced : Yes

Audio #2
ID : 3
Format : E-AC-3
Format/Info : Enhanced Audio Coding 3
Format settings, Endianness : Big
Codec ID : A_EAC3
Duration : 21 min 32 s
Bit rate mode : Constant
Bit rate : 640 kb/s
Channel(s) : 6 channels
Channel positions : Front: L C R, Side: L R, LFE
Sampling rate : 48.0 kHz
Frame rate : 187.500 FPS (256 SPF)
Compression mode : Lossy
Stream size : 98.6 MiB (6%)
Title : Original
Language : English
Service kind : Complete Main
Default : No
Forced : No

Text
ID : 4
Format : UTF-8
Codec ID : S_TEXT/UTF8
Codec ID/Info : UTF-8 Plain Text
Title : English
Language : English
Default : No
Forced : No
скриншот  скриншот  скриншот  скриншот  
Когда раздача ведётся путём добавления новых серий, при каждом добавлении создётся новый торрент. Чтобы начать докачку новой серии, пользователям необходимо сделать следующее:
(1) остановить скачивание,
(2) удалить старый торрент у себя из клиента (старые серии удалять не надо),
(3) скачать новый торрент и запустить его у себя в клиенте вместо старого, при этом указать клиенту путь в старую папку, куда и должно происходить скачивание новых серий.
Ваш клиент при этом должен произвести хеширование (проверку) старой папки (если не производит сам - помогите ему сделать это), и будет докачивать только те серии, которых у вас ещё нет.Старые серии при этом не удаляются, а продолжают раздаваться!
Eсли вы уже удалили старые серии, то предотвратить повторную закачку старых серий можно, отжав галочку в соответсвующих местах при запуске нового торрента. По возможности, желательно не удалять старые серии как можно дольше, чтобы релизёр не столько продолжал раздавать старые серии, а смог сконцентрироваться на новых.
pb.wtf



Скачать Крайний космос через торрент https://i110.fastpic.ru/big/2019/0704/ed/571bcf3085d73a6f8a87debeec56cbed.jpg Скачать фильм Крайний космос через торрент бесплантно в хорошем качестве Описание: Астронавт по имени Гэри и его уничтожающий планеты приятель, называемый себя Мункейк, приступают к путешествиям по космосу, чтобы ... 10 10 2
Торрент: Зарегистрирован [2019-09-28 17:06] · скачан: 20 раз
Статус: √ проверено
Размер: 15.58 GB
Как cкачать? Как скачать Крайний космос через торрент | qTorrent

% Раздел Тема Автор DL S | L
Мультсериалы [ 7.13 GB ] Крайний космос / Final Space / Сезон: 2 / Серии: 1-13 из 13 [2019 Мультфильм приключение WEB-DL 720p] [DVO] [Кубик в Кубе] killermax2013 Скачать
1 | 1


Последний раз редактировалось: killermax2013 (2019-09-28 17:06), всего редактировалось 7 раз(а)

28-11-2019 20:33  

Отключить всю рекламу на сайте

30-07-2019 18:04 Крайний космос Скачать торрент  

Спасибо большое , 1 сезон был шикарен .pb.wtf



    Дорогой пользователь! Огромная просьба, поблагодарите релизера, оцените раздачу и оставьте свои комментарий, если Вы скачали Крайний космос через торрент бесплатно! Внесите свою лепту в развитие PiratBit!
    Комментировать посты могут только пользователи прошедшие не сложную регистрацию
    Показать сообщения:    

    Крайний космос через торрент
    Скачать бесплатно Крайний космос
    Крайний космос скачать торрент
    Крайний космос смотреть онлайн
    Cкачать фильм Крайний космос бесплатно
    Крайний космос скачать торрент в хорошем качестве
    Крайний космос смотреть онлайн бесплатно в хорошем качестве


    Вы не можете начинать темы
    Вы не можете отвечать на сообщения
    Вы не можете редактировать свои сообщения
    Вы не можете удалять свои сообщения
    Вы не можете голосовать в опросах
    Вы не можете прикреплять файлы к сообщениям
    Вы можете скачивать файлы