новый адрес
Ссылка на приватное зеркало всего за 1$. Внимание количество ограничено!!!

iTunes

1+1

iTunes

мы

WEB-DL

1

iTunes

Чернобыль

iTunes

Ральф против интернета

Лицензия

ПШазам

Лицензия

Оно 2

Лицензия

30
pack

Вам бонус

ВАЖНО

!!Акция!!

Alien_RageХит недели

RePack

Resident Evil 21

ИГРА 18+

pack

RePack

jed

!!Акция!!

Alien_Rage

RePack

fifa19

RePack

Assassins Creed: Odyssey

RePack

NEED FOR SPEED™ PAYBACK

3 сезон

9 сезон

Бесстыжие 9 сезон

Все сериалы

все сериалы на PB.wtf

RePack

FAR CRY 5
Ребята, катастрофически не хватает 1900р. для оплаты серверов за Октябрь (всвязи с блокировками трафик упал в 3 раза), 1-2р., выручайте.
  

Толкин / Tolkien (Доме Карукоски) [2019, драма, биография, WEB-DLRip-AVC] MVO [HDRezka Studio] pb.wtf

Толкин через торрент pb.wtf

Раздают: 3 [ 0 KB/s ]
Размер: 1.55 GB | Добавлен: 4 мес. 12 д. назад | Торрент скачан:100 раз
Скачать  

30-07-2019 18:48 Толкин Скачать торрент  

Толкин / Tolkien
«A Life of Love, Courage, and Fellowship»

Год выпуска: 2019
Страна: США
Жанр: драма, биография
Продолжительность: 01:51:59
Перевод: Профессиональный (многоголосый) | HDRezka Studio
Субтитры: Английские (полные)

Режиссер: Доме Карукоски

rating

В ролях: Лили Коллинз, Николас Холт, Лаура Доннелли, Патрик Гибсон, Женевьев О Рейли, Пэм Феррис, Дерек Джекоби, Колм Мини, Крэйг Робертс, Мими Кин

Описание: Картина рассказывает о том, как молодой писатель, будучи изгоем во время обучения, находит дружбу, любовь и вдохновение. Фильм затронет участие Толкина в Первой мировой войне - он служил в британских войсках с 1916-го по 1920-й.

Качество: WEB-DLRip-AVC
Формат: MKV

Видео: 1024x428 (2.40:1), 23,976 fps, x264 ~1 785 kbps avg, 0.170 bit/pixel
Аудио: 48 kHz, AC3 Dolby Digital, 2 (L,R) ch, ~192.00 kbps avg | RUS (HDRezka Studio)
скриншот  скриншот  скриншот  скриншот  

Общее
Уникальный идентификатор : 206446802781112743565108058222861200898 (0x9B50353B8CDEEFC45A634E19DEC7AE02)
Полное имя : F:\OlLanDGroup\Tolkien.2019.WEB-DLRip(AVC).OlLanDGroup.mkv
Формат : Matroska
Версия формата : Version 4 / Version 2
Размер файла : 1,55 Гбайт
Продолжительность : 1 ч. 51 м.
Общий поток : 1978 Кбит/сек
Название фильма : Tolkien.2019 #TorpedoUK#
Дата кодирования : UTC 2019-07-30 14:59:32
Программа кодирования : mkvmerge v29.0.0 ('Like It Or Not') 64-bit
Библиотека кодирования : libebml v1.3.6 + libmatroska v1.4.9

Видео
Идентификатор : 1
Формат : AVC
Формат/Информация : Advanced Video Codec
Профиль формата : High@L4.1
Параметр CABAC формата : Да
Параметр ReFrames формата : 10 кадров
Идентификатор кодека : V_MPEG4/ISO/AVC
Продолжительность : 1 ч. 51 м.
Битрейт : 1785 Кбит/сек
Ширина : 1024 пикселя
Высота : 428 пикселей
Соотношение сторон : 2,40:1
Режим частоты кадров : Постоянный
Частота кадров : 23,976 (24000/1001) кадра/сек
Цветовое пространство : YUV
Субдискретизация насыщенности : 4:2:0
Битовая глубина : 8 бит
Тип развёртки : Прогрессивная
Бит/(Пиксели*Кадры) : 0.170
Размер потока : 1,40 Гбайт (90%)
Библиотека кодирования : x264 core 146 r2538 121396c
Настройки программы : cabac=1 / ref=10 / deblock=1:-2:-3 / analyse=0x3:0x113 / me=umh / subme=10 / psy=1 / psy_rd=0.93:0.08 / mixed_ref=1 / me_range=48 / chroma_me=1 / trellis=2 / 8x8dct=1 / cqm=0 / deadzone=21,11 / fast_pskip=1 / chroma_qp_offset=-3 / threads=6 / lookahead_threads=1 / sliced_threads=0 / nr=0 / decimate=1 / interlaced=0 / bluray_compat=0 / constrained_intra=0 / bframes=11 / b_pyramid=2 / b_adapt=2 / b_bias=0 / direct=3 / weightb=1 / open_gop=0 / weightp=2 / keyint=240 / keyint_min=23 / scenecut=40 / intra_refresh=0 / rc_lookahead=40 / rc=2pass / mbtree=0 / bitrate=1785 / ratetol=1.0 / qcomp=0.60 / qpmin=0 / qpmax=69 / qpstep=4 / cplxblur=20.0 / qblur=0.5 / vbv_maxrate=50000 / vbv_bufsize=62500 / nal_hrd=none / filler=0 / ip_ratio=1.40 / pb_ratio=1.30 / aq=1:1.00
Язык : English
Default : Да
Forced : Нет

Аудио
Идентификатор : 2
Формат : AC-3
Формат/Информация : Audio Coding 3
Расширение режима : CM (complete main)
Параметр Endianness формата : Big
Идентификатор кодека : A_AC3
Продолжительность : 1 ч. 51 м.
Вид битрейта : Постоянный
Битрейт : 192 Кбит/сек
Каналы : 2 канала
Расположение каналов : Front: L R
Частота : 48,0 КГц
Частота кадров : 31,250 кадров/сек (1536 spf)
Битовая глубина : 16 бит
Метод сжатия : С потерями
Размер потока : 154 Мбайт (10%)
Заголовок : MVO [HDRezka Studio]
Язык : Russian
Default : Да
Forced : Нет

Текст
Идентификатор : 3
Формат : UTF-8
Идентификатор кодека : S_TEXT/UTF8
Идентификатор кодека/Информация : UTF-8 Plain Text
Продолжительность : 1 ч. 43 м.
Битрейт : 59 бит/сек
Count of elements : 1592
Размер потока : 45,1 Кбайт (0%)
Заголовок : Full
Язык : English
Default : Нет
Forced : Нет

Меню
00:00:00.000 : en:Chapter 01
00:06:28.138 : en:Chapter 02
00:11:10.420 : en:Chapter 03
00:15:52.118 : en:Chapter 04
00:21:01.886 : en:Chapter 05
00:25:54.803 : en:Chapter 06
00:34:36.032 : en:Chapter 07
00:37:47.640 : en:Chapter 08
00:42:02.227 : en:Chapter 09
00:44:45.098 : en:Chapter 10
00:47:40.773 : en:Chapter 11
00:52:05.954 : en:Chapter 12
00:57:07.422 : en:Chapter 13
01:00:00.970 : en:Chapter 14
01:04:40.332 : en:Chapter 15
01:08:10.000 : en:Chapter 16
01:11:18.396 : en:Chapter 17
01:14:30.087 : en:Chapter 18
01:19:46.653 : en:Chapter 19
01:26:10.536 : en:Chapter 20
01:32:12.981 : en:Chapter 21
01:35:53.493 : en:Chapter 22
01:40:06.662 : en:Chapter 23
01:45:07.087 : en:Chapter 24

pb.wtf



Скачать Толкин через торрент https://i90.fastpic.ru/big/2019/0730/ac/da10c6c27f5813a4e016c876df8bcdac.jpg Скачать фильм Толкин через торрент бесплантно в хорошем качестве Описание: Картина рассказывает о том, как молодой писатель, будучи изгоем во время обучения, находит дружбу, любовь и вдохновение. Фильм ... 10 10 3
Торрент: Зарегистрирован [2019-07-30 18:48] · скачан: 100 раз
Статус: T временная
Размер: 1.55 GB
Как cкачать? Как скачать Толкин через торрент | qTorrent

% Раздел Тема Автор DL S | L
Фильмы (HD 720p, 1080p) (48-60 fps) [ 3.9 GB ] Толкин / Tolkien [2019 BDRip - HEVC 1080p 10 bit 60 FPS] [многоголосый] dd2d3 Скачать
3 | 0
Фильмы 2019 [DVDrip, WEB-DLRip, HDrip] (DUB, MVO) [ 1.46 GB ] Толкин / Tolkien [2019 биография BDRip] MVO [] Twi7ter Скачать
24 | 1
Фильмы 2019 [DVDrip, WEB-DLRip, HDrip] (DUB, MVO) [ 2.24 GB ] Толкин / Tolkien [2019 биография BDRip-AVC] 2xMVO [ HDRezka Studio] bober100 Скачать
7 | 0
Фильмы [HD 720p, 1080p] (Хороший звук DUB, MVO) [ 14.52 GB ] Толкин / Tolkien [2019 биография BDRip 1080p] MVO +DUB [] bober100 Скачать
3 | 0
Фильмы (Blu-ray, BD-Remux, HDDVD) [ 42.25 GB ] Толкин / Tolkien [2019 биография Blu-Ray EUR 1080p] MVO +DUB [] bober100 Скачать
2 | 0
Фильмы с украинским озвучиванием [ 1.45 GB ] Толкин / Tolkien [2019 биография BDRip] [Ukr DUB] () killermax2013 Скачать
1 | 0
Фильмы 2019 [DVDrip, WEB-DLRip, HDrip] (DUB, MVO) [ 746 MB ] Толкин / Tolkien [2019 военный биография BDRip-AVC] [MVO] sokol_ok Скачать
9 | 5

28-11-2019 20:33  

Отключить всю рекламу на сайте

    Дорогой пользователь! Огромная просьба, поблагодарите релизера, оцените раздачу и оставьте свои комментарий, если Вы скачали Толкин через торрент бесплатно! Внесите свою лепту в развитие PiratBit!
    Комментировать посты могут только пользователи прошедшие не сложную регистрацию
    Показать сообщения:    

    Толкин через торрент
    Скачать бесплатно Толкин
    Толкин скачать торрент
    Толкин смотреть онлайн
    Cкачать фильм Толкин бесплатно
    Толкин скачать торрент в хорошем качестве
    Толкин смотреть онлайн бесплатно в хорошем качестве


    Вы не можете начинать темы
    Вы не можете отвечать на сообщения
    Вы не можете редактировать свои сообщения
    Вы не можете удалять свои сообщения
    Вы не можете голосовать в опросах
    Вы не можете прикреплять файлы к сообщениям
    Вы можете скачивать файлы