Ссылка на приватное зеркало всего за 1$. Внимание количество ограничено!!!

iTunes

1+1

iTunes

мы

MV0

1

WEB-DLRip

Джокер

Пифагор

Ведьмак / The Witcher сериал

iTunes

ПШазам

iTunes

Оно 2

iTunes

30
pack

Вам бонус

ВАЖНО

!!Акция!!

Alien_RageХит недели

RePack

Resident Evil 21

ИГРА 18+

pack

RePack

jed

!!Акция!!

Alien_Rage

RePack

fifa19

RePack

Assassins Creed: Odyssey

RePack

NEED FOR SPEED™ PAYBACK

4 сезон

9 сезон

Бесстыжие 9 сезон

Все сериалы

все сериалы на PB.wtf

RePack

FAR CRY 5
  

Братство (Павел Лунгин) [2019, драма, боевик, история, военный, HDRip] [FRA Transfer / Лицензия] pb.wtf

Братство через торрент pb.wtf

Раздают: 4 [ 0 KB/s ]
Размер: 748 MB | Добавлен: 13 д. назад | Торрент скачан:54 раза
Скачать  

30-07-2019 21:25 Братство Скачать торрент  

Братство
Год выпуска: 2019
Страна: Россия
Жанр: драма, боевик, история, военный
Продолжительность: 01:53:39
Перевод: Не требуется | Лицензия
Субтитры: Отсутствуют

Режиссер: Павел Лунгин

rating

В ролях: Кирилл Пирогов, Ян Цапник, Виталий Кищенко, Федор Лавров, Олег Васильков, Антон Момот, Михаил Кремер, Кирилл Ермичев, Роман Колотухин, Василий Буткевич

Описание: 1988 год, канун вывода советских войск из Афганистана. Командование 108-й мотострелковой дивизии планирует отход через перевал Саланг, подконтрольный группировке моджахедов Инженера Хошема. Разведка пытается договориться о перемирии с душманами, но дело осложняется тем, что в плен к Хошему попадает советский военный пилот. Начинается сложная игра, в которой переплетаются противоположные интересы множества самых разных людей: штабистов, исламистов, спецназа, разведки, чиновников из афганского правительства, сотрудников советских спецслужб, таджиков и пуштунов. А в самом центре этого водоворота оказываются солдаты разведроты, для которых важнее любых политических соображений остается правило - не бросать своих.

Качество: HDRip
Формат: AVI

Видео: 704x400 (1.76:1), 23.976 fps, XviD build 73 ~782 kbps avg, 0.12 bit/pixel
Аудио: 48.0 kHz, MP3, 2 ch, 128 kbps
скриншот  скриншот  скриншот  скриншот  скриншот  

Общее
Полное имя : D:\Bratstvo.2019.HDRip.740.mb.avi
Формат : AVI
Формат/Информация : Audio Video Interleave
Размер файла : 748 Мбайт
Продолжительность : 1 ч. 53 м.
Общий поток : 920 Кбит/сек
Программа кодирования : VirtualDubMod 1.5.10.3 | (build 2550/release)
Библиотека кодирования : VirtualDubMod build 2550/release

Видео
Идентификатор : 0
Формат : MPEG-4 Visual
Профиль формата : Advanced Simple@L5
Параметр BVOP формата : 1
Параметр QPel формата : Нет
Параметр GMC формата : Без точки перехода
Параметр матрицы формата : Выборочная
Идентификатор кодека : XVID
Идентификатор кодека/Подсказка : XviD
Продолжительность : 1 ч. 53 м.
Битрейт : 783 Кбит/сек
Ширина : 704 пикселя
Высота : 400 пикселей
Соотношение сторон : 16:9
Частота кадров : 23,976 кадра/сек
Цветовое пространство : YUV
Субдискретизация насыщенности : 4:2:0
Битовая глубина : 8 бит
Тип развёртки : Прогрессивная
Метод сжатия : С потерями
Бит/(Пиксели*Кадры) : 0.116
Размер потока : 637 Мбайт (85%)
Библиотека кодирования : XviD 73

Аудио
Идентификатор : 1
Формат : MPEG Audio
Версия формата : Version 1
Профиль формата : Layer 3
Идентификатор кодека : 55
Идентификатор кодека/Подсказка : MP3
Продолжительность : 1 ч. 53 м.
Вид битрейта : Постоянный
Битрейт : 128 Кбит/сек
Каналы : 2 канала
Частота : 48,0 КГц
Метод сжатия : С потерями
Размер потока : 104 Мбайт (14%)
Выравнивание : Соединение по промежуткам
Продолжительность промежутка : 42 мс. (1,00 видеокадр)
Время предзагрузки промежутка : 504 мс.
Библиотека кодирования : LAME3.99r
Настройки программы : -m s -V 4 -q 2 -lowpass 17 -b 128

pb.wtf



Скачать Братство через торрент https://d.radikal.ru/d27/1906/63/a05de0e66c26.jpg Скачать фильм Братство через торрент бесплантно в хорошем качестве Описание: 1988 год, канун вывода советских войск из Афганистана. Командование 108-й мотострелковой дивизии планирует отход через перевал ... 7.3 10 10
Торрент: Зарегистрирован [2020-02-07 13:31] · скачан: 54 раз
Статус: √ проверено
Размер: 748 MB
Как cкачать? Как скачать Братство через торрент | qTorrent

% Раздел Тема Автор DL S | L
Наши новые фильмы 2018-2019 [ 2.19 GB ] Братство [2019 история военный BDRip] [Русский] [] Twi7ter Скачать
33 | 3
Наши новые фильмы 2018-2019 [ 1.47 GB ] Братство [2019 история военный BDRip] [Русский] [] Twi7ter Скачать
26 | 2
Наши фильмы (Blu-ray, BD-Remux, HDDVD) [ 36.93 GB ] Братство [2019 история военный Blu-ray Оригинальный] Бумер Скачать
2 | 0
Наши новые фильмы 2018-2019 [ 1.46 GB ] Братство [2019 история военный BDRip] [FRA Transfer / ] bober100 Скачать
12 | 0
Наши фильмы (Blu-ray, BD-Remux, HDDVD) [ 28.12 GB ] Братство [2019 история военный BD Remux 1080p] [FRA Transfer / ] bober100 Скачать
2 | 0
Наши новые фильмы 2018-2019 [ 2.18 GB ] Братство [2019 история военный BDRip] [FRA Transfer / ] bober100 Скачать
3 | 0
Наши фильмы (HD, WEB-DL 720p, 1080p) [ 9.26 GB ] Братство [2019 история военный BDRip 1080p] [FRA Transfer / ] bober100 Скачать
5 | 0

28-11-2019 20:33  

Отключить всю рекламу на сайте

    Дорогой пользователь! Огромная просьба, поблагодарите релизера, оцените раздачу и оставьте свои комментарий, если Вы скачали Братство через торрент бесплатно! Внесите свою лепту в развитие PiratBit!
    Комментировать посты могут только пользователи прошедшие не сложную регистрацию
    Показать сообщения:    

    Братство через торрент
    Скачать бесплатно Братство
    Братство скачать торрент
    Братство смотреть онлайн
    Cкачать фильм Братство бесплатно
    Братство скачать торрент в хорошем качестве
    Братство смотреть онлайн бесплатно в хорошем качестве


    Вы не можете начинать темы
    Вы не можете отвечать на сообщения
    Вы не можете редактировать свои сообщения
    Вы не можете удалять свои сообщения
    Вы не можете голосовать в опросах
    Вы не можете прикреплять файлы к сообщениям
    Вы можете скачивать файлы