новый адрес пиратбит piratbit
Мега распродажа FORZA HORIZON 4 ULTIMATE+ВСЕ DLC+ОНЛАЙН всего за 499р. 349 руб. (супер цена). Внимание количество ограничено!!!

iTunes

1+1

iTunes

мы

iTunes

1

iTunes

Чернобыль

iTunes

Ральф против интернета

Лицензия

ПШазам

Лицензия

Игра престолов

Лицензия

30
pack

ВАЖНО

!!Акция!!

Alien_RageХит недели

RePack

Resident Evil 21

ИГРА 18+

pack

RePack

Metro:Exodus

!!Акция!!

Alien_Rage

RePack

fifa19

RePack

Assassins Creed: Odyssey

RePack

NEED FOR SPEED™ PAYBACK

3 сезон

9 сезон

Бесстыжие 9 сезон

Все сериалы

все сериалы на PB.wtf

RePack

FAR CRY 5
Ребята, катастрофически не хватает 1900р. для оплаты серверов за Октябрь (всвязи с блокировками трафик упал в 3 раза), 1-2р., выручайте.
  

Братство (Павел Лунгин) [2019, драма, боевик, история, военный, WEB-DLRip] [iTunes] pb.wtf

Братство через торрент pb.wtf

Раздают: 1 [ 0 KB/s ]
Размер: 746 MB | Добавлен: 3 мес. 11 д. назад | Торрент скачан:84 раза
Скачать  

30-07-2019 21:25 Братство Скачать торрент  

Братство
Год выпуска: 2019
Страна: Россия
Жанр: драма, боевик, история, военный
Продолжительность: 01:52:28
Перевод: Не требуется | iTunes
Субтитры: Русские [на иностранную речь]

Режиссер: Павел Лунгин

rating

В ролях: Кирилл Пирогов, Ян Цапник, Виталий Кищенко, Федор Лавров, Олег Васильков, Антон Момот, Михаил Кремер, Кирилл Ермичев, Роман Колотухин, Василий Буткевич

Описание: 1988 год, канун вывода советских войск из Афганистана. Командование 108-й мотострелковой дивизии планирует отход через перевал Саланг, подконтрольный группировке моджахедов Инженера Хошема. Разведка пытается договориться о перемирии с душманами, но дело осложняется тем, что в плен к Хошему попадает советский военный пилот. Начинается сложная игра, в которой переплетаются противоположные интересы множества самых разных людей: штабистов, исламистов, спецназа, разведки, чиновников из афганского правительства, сотрудников советских спецслужб, таджиков и пуштунов. А в самом центре этого водоворота оказываются солдаты разведроты, для которых важнее любых политических соображений остается правило - не бросать своих.

Качество: WEB-DLRip
Формат: AVI

Видео: XviD build 73, 624x352 (16:9), 24.000 fps, 791 Kbps (0.150 bit/pixel
Аудио: 48.0 kHz, MP3, 2 ch, 128 kbps
скриншот  скриншот  скриншот  скриншот  

General
Complete name : D:RazdachiBratstvo.2019.WEB-DLRip.745mb.GeneralFilm.avi
Format : AVI
Format/Info : Audio Video Interleave
File size : 746 MiB
Duration : 1 h 52 min
Overall bit rate : 928 kb/s
Writing application : VirtualDubMod 1.5.10.3 | www.virtualdub-fr.org || (build 2550/release)
Writing library : VirtualDubMod build 2550/release

Video
ID : 0
Format : MPEG-4 Visual
Format profile : Advanced Simple@L5
Format settings : BVOP1 / Custom Matrix
Format settings, BVOP : 1
Format settings, QPel : No
Format settings, GMC : No warppoints
Format settings, Matrix : Custom
Codec ID : XVID
Codec ID/Hint : XviD
Duration : 1 h 52 min
Bit rate : 791 kb/s
Width : 624 pixels
Height : 352 pixels
Display aspect ratio : 16:9
Frame rate : 24.000 FPS
Color space : YUV
Chroma subsampling : 4:2:0
Bit depth : 8 bits
Scan type : Progressive
Compression mode : Lossy
Bits/(Pixel*Frame) : 0.150
Stream size : 636 MiB (85%)
Writing library : XviD 73

Audio
ID : 1
Format : MPEG Audio
Format version : Version 1
Format profile : Layer 3
Codec ID : 55
Codec ID/Hint : MP3
Duration : 1 h 52 min
Bit rate mode : Constant
Bit rate : 128 kb/s
Channel(s) : 2 channels
Sampling rate : 48.0 kHz
Frame rate : 41.667 FPS (1152 SPF)
Compression mode : Lossy
Stream size : 103 MiB (14%)
Alignment : Aligned on interleaves
Interleave, duration : 42 ms (1.00 video frame)
Interleave, preload duratio : 504 ms
Writing library : LAME3.99r
Encoding settings : -m s -V 4 -q 2 -lowpass 17 -b 128

pb.wtf



Скачать Братство через торрент https://d.radikal.ru/d27/1906/63/a05de0e66c26.jpg Скачать фильм Братство через торрент бесплантно в хорошем качестве Описание: 1988 год, канун вывода советских войск из Афганистана. Командование 108-й мотострелковой дивизии планирует отход через перевал ... 8.5 10 6
Торрент: Зарегистрирован [2019-07-30 21:25] · скачан: 84 раз
Статус: √ проверено
Размер: 746 MB
Как cкачать? Как скачать Братство через торрент | qTorrent

% Раздел Тема Автор DL S | L
Наши новые фильмы 2018-2019 [ 1.46 GB ] Братство [2019 история военный WEB-DLRip-AVC] bober100 Скачать
10 | 0
Наши новые фильмы 2018-2019 [ 1.45 GB ] Братство [2019 история военный WEB-DLRip] sheker187 Скачать
17 | 0
Наши фильмы (HD, WEB-DL 720p, 1080p) [ 3.51 GB ] Братство [2019 история военный WEB-DL 720p] sheker187 Скачать
4 | 0
Наши новые фильмы 2018-2019 [ 4.45 GB ] Братство [2019 история военный WEB-DL 1080p] sheker187 Скачать
8 | 0
Наши новые фильмы 2018-2019 [ 745 MB ] Братство [2019 история WEB-DLRip-AVC] sokol_ok Скачать
22 | 2
Наши новые фильмы 2018-2019 [ 1.45 GB ] Братство [2019 история WEB-DLRip-AVC] sokol_ok Скачать
33 | 0
Фильмы (Blu-ray, BD-Remux, HDDVD) [ 42.23 GB ] Братство волка / Le Pacte des loups [2001 Blu-ray EUR 1080p] DUB [] bober100 Скачать
1 | 0


>> Регистрируемся здесь <<






Отзывы и комментарии о схеме читаем и пишем здесь: ---> Отзывы и комментарии о схеме

Новые благодарочки в телеграм довольных пользователей:
скриншот   скриншот   скриншот   скриншот   скриншот
    Дорогой пользователь! Огромная просьба, поблагодарите релизера, оцените раздачу и оставьте свои комментарий, если Вы скачали Братство через торрент бесплатно! Внесите свою лепту в развитие PiratBit!
    Комментировать посты могут только пользователи прошедшие не сложную регистрацию
    Показать сообщения:    

    Братство через торрент
    Скачать бесплатно Братство
    Братство скачать торрент
    Братство смотреть онлайн
    Cкачать фильм Братство бесплатно
    Братство скачать торрент в хорошем качестве
    Братство смотреть онлайн бесплатно в хорошем качестве


    Вы не можете начинать темы
    Вы не можете отвечать на сообщения
    Вы не можете редактировать свои сообщения
    Вы не можете удалять свои сообщения
    Вы не можете голосовать в опросах
    Вы не можете прикреплять файлы к сообщениям
    Вы можете скачивать файлы