Ссылка на приватное зеркало нашего сайта всего за 1$. Внимание количество ограничено!!!

2 сезон

iTunes

1 сезон

1

iTunes

iTunes

iTunes

1 сезон

RePack

30

ИГРА 18+

pack

ВАЖНО

!!Акция!!

Alien_RageХит недели

RePack

MK11
pack

Забери бонус

RePack

jed

!!Акция!!

Alien_Rage

RePack

fifa19

RePack

Assassins Creed: Odyssey

RePack

NEED FOR SPEED™ PAYBACK

4 сезон

9 сезон

Бесстыжие 9 сезон

Все сериалы

все сериалы на PB.wtf

RePack

FAR CRY 5
  

Верь мне / Серии: 1-4 из 4 (Ирина Громозда) [2018, Мелодрама, WEB-DL 1080p] pb.wtf

Верь мне через торрент pb.wtf

Размер: 9.76 GB | Добавлен: 1 год 2 мес. назад | Торрент скачан:13 раз
Скачать  

30-07-2019 23:50 Верь мне Скачать торрент  

Верь мне
Год выпуска: 2018
Страна: Украина
Жанр: Мелодрама
Продолжительность: ~ 00:49:00
Перевод: Не требуется
Субтитры: отсутствуют

Режиссер: Ирина Громозда

В ролях: Екатерина Рябова, Дмитрий Пчела, Даниил Лакоза, Леся Островская, Ирина Веренич-Островская, Вячеслав Довженко, Сергей Комаровский, Дмитрий Сарансков, Марина Кошкина и др.

Описание: Инна Литвиненко с сыном Никитой приезжают в небольшой городок Павловск. Никита недоволен – за последние десять лет это уже четвертый новый город и мама никогда не обьясняет, зачем они все время переезжают. Тем не менее постепенно их жизнь налаживается: они снимают жилье у симпатичной одинокой женщины Таи, Инна находит работу в цветочном магазинчике, а Никита идет в школу и записывается в футбольную секцию. Тая случайно находит среди вещей своей квартирантки паспорт на имя Татьяны Корнеевой с фотографией Инны. И по странному совпадению, в свежей газете Тая видит объявление о том, что некая Татьяна Корнеева разыскивается в связи с открытием наследства. Тая звонит по объявлению...

Качество: WEB-DL 1080p
Формат: MKV

Видео: MPEG-4 AVC, ~ 6800 Кбит/с, 1920x1080, 25 кадр/с
Аудио: AC3, 2 ch, 192 Кбит/с

скриншот  скриншот  скриншот  скриншот  

Общее
Уникальный идентификатор : 4847721860610434768979391727676988368 (0x3A5A32415627146071411E931649BD0)
Полное имя : D:\Верь мне.(2018).WEB-DL (1080p).by.Nicodem.Files-x\01.Верь мне.(2018).WEB-DL (1080p).by.Nicodem.Files-x.mkv
Формат : Matroska
Версия формата : Version 4 / Version 2
Размер файла : 2,49 Гбайт
Продолжительность : 49 м. 55 с.
Режим общего битрейта : Переменный
Общий поток : 7139 Кбит/сек
Программа кодирования : Lavf56.36.100
Библиотека кодирования : Lavf56.36.100 / Lavf56.36.100

Видео
Идентификатор : 1
Формат : AVC
Формат/Информация : Advanced Video Codec
Профиль формата : High@L4
Параметр CABAC формата : Да
Параметр RefFrames формата : 3 кадра
Идентификатор кодека : V_MPEG4/ISO/AVC
Продолжительность : 49 м. 55 с.
Вид битрейта : Переменный
Битрейт : 6805 Кбит/сек
Максимальный битрейт : 9000 Кбит/сек
Ширина : 1920 пикселей
Высота : 1080 пикселей
Соотношение сторон : 16:9
Режим частоты кадров : Постоянный
Частота кадров : 25,000 кадров/сек
Стандарт вещания : PAL
Цветовое пространство : YUV
Субдискретизация насыщенности : 4:2:0
Битовая глубина : 8 бит
Тип развёртки : Прогрессивная
Бит/(Пиксели*Кадры) : 0.131
Размер потока : 2,37 Гбайт (95%)
Default : Да
Forced : Нет
Цветовой диапазон : Limited
Основные цвета : BT.709
Характеристики трансфера : BT.709
Коэффициенты матрицы : BT.709

Аудио
Идентификатор : 2
Формат : AC-3
Формат/Информация : Audio Coding 3
Расширение режима : CM (complete main)
Параметр Endianness формата : Big
Идентификатор кодека : A_AC3
Продолжительность : 49 м. 55 с.
Вид битрейта : Постоянный
Битрейт : 192 Кбит/сек
Каналы : 2 канала
Расположение каналов : Front: L R
Частота : 44,1 КГц
Частота кадров : 28,711 кадров/сек (1536 spf)
Метод сжатия : С потерями
Задержка видео : -120 мс.
Размер потока : 68,6 Мбайт (3%)
Язык : unknown
Default : Да
Forced : Нет

pb.wtf



Скачать Верь мне через торрент https://i90.fastpic.ru/big/2019/0730/0b/64dcd068c8dfb3e7269a2d19744f780b.jpg Скачать фильм Верь мне через торрент бесплантно в хорошем качестве Описание: Инна Литвиненко с сыном Никитой приезжают в небольшой городок Павловск. Никита недоволен – за последние десять лет это уже ... 10 10 2
Торрент: Зарегистрирован [2019-07-30 23:50] · скачан: 13 раз
Статус: √ проверено
Размер: 9.76 GB
Как cкачать? Как скачать Верь мне через торрент | qTorrent

% Раздел Тема Автор DL S | L
Наши сериалы [ 2.54 GB ] Верь мне / Серий: 1 - 4 из 4 [2018 WEB-DLRip] Леонид Ильич Скачать
1 | 0
Наши сериалы [ 2.29 GB ] Верь мне / Серии: 1-4 из 4 [2018 Мело SATRip-AVC] bober100 Скачать
1 | 0

28-11-2019 20:33  

Отключить всю рекламу на сайте

    Дорогой пользователь! Огромная просьба, поблагодарите релизера, оцените раздачу и оставьте свои комментарий, если Вы скачали Верь мне через торрент бесплатно! Внесите свою лепту в развитие PiratBit!
    Комментировать посты могут только пользователи прошедшие не сложную регистрацию
    Показать сообщения:    

    Верь мне через торрент
    Скачать бесплатно Верь мне
    Верь мне скачать торрент
    Верь мне смотреть онлайн
    Cкачать фильм Верь мне бесплатно
    Верь мне скачать торрент в хорошем качестве
    Верь мне смотреть онлайн бесплатно в хорошем качестве


    Вы не можете начинать темы
    Вы не можете отвечать на сообщения
    Вы не можете редактировать свои сообщения
    Вы не можете удалять свои сообщения
    Вы не можете голосовать в опросах
    Вы не можете прикреплять файлы к сообщениям
    Вы можете скачивать файлы