Ссылка на приватное зеркало нашего сайта всего за 1$. Внимание количество ограничено!!!

2 сезон

iTunes

1 сезон

1

iTunes

iTunes

iTunes

1 сезон

RePack

30

ИГРА 18+

pack

ВАЖНО

!!Акция!!

Alien_RageХит недели

RePack

MK11
pack

Забери бонус

RePack

jed

!!Акция!!

Alien_Rage

RePack

fifa19

RePack

Assassins Creed: Odyssey

RePack

NEED FOR SPEED™ PAYBACK

4 сезон

9 сезон

Бесстыжие 9 сезон

Все сериалы

все сериалы на PB.wtf

RePack

FAR CRY 5
  

Ловушка / Сезон: 1 / Серии: 1-24 из 24 (Сергей Коротаев) [2013, Детектив, драма, криминал, WEB-DL 720p] pb.wtf

Ловушка через торрент pb.wtf

Размер: 20.91 GB | Добавлен: 1 год 2 мес. назад | Торрент скачан:76 раз
Скачать  

31-07-2019 02:45 Ловушка Скачать торрент  

Ловушка Год выпуска: 2013
Страна: Россия, Украина
Жанр: Детектив, драма, криминал
Продолжительность: ~ 00:44:00 серия
Перевод: Не требуется
Субтитры: отсутствуют

Режиссер: Сергей Коротаев

rating

В ролях: Иван Оганесян, Сергей Газаров, Сергей Стрельников, Анатолий Хостикоев, Сергей Сосновский, Рамиль Сабитов, Игорь Ботвин, Александр Форманчук, Максим Дрозд, Евгений Ефремов, Станислав Боклан, Марина Коняшкина, Наталья Доля, Инна Капинос, Екатерина Кистень, Михаил Жонин, Сергей Сипливый, Виталий Салий, Валерия Ходос, Ольга Морозова, Дария Боцманова, Яна Глущенко, Марк Дробот, Алла Мартынюк, Вадим Лёгкий, Михаил Романов (II), Алексей Смолка, Ирина Бибик
О фильме:

Описание: Ремейк знаменитого армянского сериала "Ворогайт". Главе самого мощного городского клана удалось прекратить криминальные войны. Сам же он решил отойти на покой и передать дела своим молодым и дерзким помощникам. Они очень быстро удвоили доходы клана, но агрессивными действиями вызвали волну недовольства остального криминального мира. Мечта «крестного отца» уйти на покой никак не может осуществиться — ему постоянно приходится вмешиваться, чтобы сохранить мир. Но мир выгоден не всем: после 12 лет в тюрьме в город возвращается крупный криминальный авторитет, готовый любой ценой вернуть утраченные позиции.

Качество: WEB-DL 720p
Формат: MKV

Видео: 1280х720 (16:9), 25 fps, AVC MPEG-4 (x264), High@L4.0 ~ 2500 kbps avg, 0.179 bit/pixel
Аудио: 48 kHz, AC3, 2 ch, ~ 192 kbps avg
скриншот  скриншот  скриншот  скриншот  

скриншот   скриншот   скриншот   скриншот  
скриншот  

Общее
Уникальный идентификатор : 198285329246497195564329155291251460531 (0x952C5D85249C52DC871F7CEE702BC9B3)
Полное имя : D:\Lovushka.2013.WEB-DL.(720p).MediaClub\Lovushka.(01.seriya.iz.24).2013.WEB-DL.(720p).MediaClub.mkv
Формат : Matroska
Версия формата : Version 2
Размер файла : 825 Мбайт
Продолжительность : 42 м. 56 с.
Общий поток : 2686 Кбит/сек
Название фильма : Lovushka.(01.seriya.iz.24).2013.WEB-DL.(720p).MediaClub
Дата кодирования : UTC 2015-01-05 20:07:19
Программа кодирования : mkvmerge v5.8.0 ('No Sleep / Pillow') built on Sep 2 2012 15:37:04
Библиотека кодирования : libebml v1.2.3 + libmatroska v1.3.0

Видео
Идентификатор : 1
Формат : AVC
Формат/Информация : Advanced Video Codec
Профиль формата : High@L4
Параметр CABAC формата : Да
Параметр RefFrames формата : 3 кадра
Идентификатор кодека : V_MPEG4/ISO/AVC
Продолжительность : 42 м. 56 с.
Битрейт : 2500 Кбит/сек
Ширина : 1280 пикселей
Высота : 720 пикселей
Соотношение сторон : 16:9
Режим частоты кадров : Постоянный
Частота кадров : 25,000 кадров/сек
Цветовое пространство : YUV
Субдискретизация насыщенности : 4:2:0
Битовая глубина : 8 бит
Тип развёртки : Прогрессивная
Бит/(Пиксели*Кадры) : 0.109
Размер потока : 749 Мбайт (91%)
Библиотека кодирования : x264 core 130
Настройки программы : cabac=1 / ref=4 / deblock=1:0:0 / analyse=0x3:0x133 / me=umh / subme=9 / psy=1 / psy_rd=1.00:0.00 / mixed_ref=1 / me_range=24 / chroma_me=1 / trellis=2 / 8x8dct=1 / cqm=0 / deadzone=21,11 / fast_pskip=1 / chroma_qp_offset=-2 / threads=2 / lookahead_threads=1 / sliced_threads=0 / nr=0 / decimate=1 / interlaced=0 / bluray_compat=0 / constrained_intra=0 / bframes=9 / b_pyramid=1 / b_adapt=2 / b_bias=0 / direct=3 / weightb=1 / open_gop=0 / weightp=2 / keyint=100 / keyint_min=10 / scenecut=40 / intra_refresh=0 / rc_lookahead=100 / rc=2pass / mbtree=1 / bitrate=2500 / ratetol=1.0 / qcomp=0.60 / qpmin=0 / qpmax=69 / qpstep=4 / cplxblur=20.0 / qblur=0.5 / vbv_maxrate=3250 / vbv_bufsize=3750 / nal_hrd=none / ip_ratio=1.40 / aq=1:1.00
Default : Да
Forced : Да

Аудио
Идентификатор : 2
Формат : AC-3
Формат/Информация : Audio Coding 3
Расширение режима : CM (complete main)
Параметр Endianness формата : Big
Идентификатор кодека : A_AC3
Продолжительность : 42 м. 56 с.
Вид битрейта : Постоянный
Битрейт : 192 Кбит/сек
Каналы : 2 канала
Расположение каналов : Front: L R
Частота : 48,0 КГц
Частота кадров : 31,250 кадров/сек (1536 spf)
Метод сжатия : С потерями
Размер потока : 59,0 Мбайт (7%)
Язык : Russian
Default : Да
Forced : Да

pb.wtf



Скачать Ловушка через торрент http://i6.imageban.ru/out/2013/11/09/f5239c6d21e8aa05d2e80ebe42ec31dc.png Скачать фильм Ловушка через торрент бесплантно в хорошем качестве Описание: Ремейк знаменитого армянского сериала "Ворогайт". Главе самого мощного городского клана удалось прекратить криминальные войны. ... 9.6 10 5
Торрент: Зарегистрирован [2019-07-31 02:45] · скачан: 76 раз
Статус: √ проверено
Размер: 20.91 GB
Как cкачать? Как скачать Ловушка через торрент | qTorrent

28-11-2019 20:33  

Отключить всю рекламу на сайте

08-08-2019 08:45 Ловушка Скачать торрент  

Очень интересный сериал! 9 из 10pb.wtf



    Дорогой пользователь! Огромная просьба, поблагодарите релизера, оцените раздачу и оставьте свои комментарий, если Вы скачали Ловушка через торрент бесплатно! Внесите свою лепту в развитие PiratBit!
    Комментировать посты могут только пользователи прошедшие не сложную регистрацию
    Показать сообщения:    

    Ловушка через торрент
    Скачать бесплатно Ловушка
    Ловушка скачать торрент
    Ловушка смотреть онлайн
    Cкачать фильм Ловушка бесплатно
    Ловушка скачать торрент в хорошем качестве
    Ловушка смотреть онлайн бесплатно в хорошем качестве


    Вы не можете начинать темы
    Вы не можете отвечать на сообщения
    Вы не можете редактировать свои сообщения
    Вы не можете удалять свои сообщения
    Вы не можете голосовать в опросах
    Вы не можете прикреплять файлы к сообщениям
    Вы можете скачивать файлы