Ссылка на приватное зеркало всего за 1$. Внимание количество ограничено!!!

iTunes

1+1

iTunes

мы

WEB-DL

1

iTunes

Чернобыль

iTunes

Ральф против интернета

Лицензия

ПШазам

Лицензия

Оно 2

Лицензия

30
pack

Вам бонус

ВАЖНО

!!Акция!!

Alien_RageХит недели

RePack

Resident Evil 21

ИГРА 18+

pack

RePack

jed

!!Акция!!

Alien_Rage

RePack

fifa19

RePack

Assassins Creed: Odyssey

RePack

NEED FOR SPEED™ PAYBACK

3 сезон

9 сезон

Бесстыжие 9 сезон

Все сериалы

все сериалы на PB.wtf

RePack

FAR CRY 5
Ребята, катастрофически не хватает 1900р. для оплаты серверов за Октябрь (всвязи с блокировками трафик упал в 3 раза), 1-2р., выручайте.
  

Легенда о святом пропойце / La leggenda del santo bevitore (Эрманно Ольми) [1988, драма, BDRip 1080p by msltel] AVO pb.wtf

Легенда о святом пропойце через торрент pb.wtf

Размер: 16.02 GB | Добавлен: 4 мес. 13 д. назад | Торрент скачан:2 раза
Скачать  

31-07-2019 04:52 Легенда о святом пропойце Скачать торрент  

Название: Легенда о святом пропойце
Оригинальное название: La leggenda del santo bevitore
Год выпуска: 1988
Страна: Италия, Франция
Жанр: драма
Продолжительность: 02:07:36
Перевод: авторский

Режиссер: Эрманно Ольми
В ролях: Рутгер Хауэр, Энтони Куэйл, Сандрин Дюма, Доминик Пинон, Софи Сегален, Сесиль Паоли, Жан-Морис Шане, Джозеф Де Медина, Франческо Альдигьери, Франсуаз Пинквассер, Мария Маззокко, Далила Белатреке

О фильме: Незнакомец одаривает бездомного бродягу, главного героя, 200 франками, прося его вернуть их местной церкви, когда тот сможет; бродяга, главный герой картины, даёт обещание расплатиться. На протяжении фильма он пытается сдержать своё обещание, натыкаясь на различные препятствия... Фильм по одноимённой повести австрийского писателя Йозефа Рота.



Качество: BDRip 1080p
Формат: MKV
Видео: MPEG-4 AVC, 16.9 Mбит/с, 1920x1036, 23.976 кадр/с
Аудио 1: русский, AC3, 256 kbps, 2 ch, 48 kHz [авторский, Андрей Гаврилов]
Аудио 2: английский, DTS, 768 kbps, 6 ch, 48 kHz
Субтитры 1: английские
Субтитры 2: итальянские
Главы/чаптеры
Общее
Уникальный идентификатор : 183699103588071396814108931451845982001 (0x8A33291250FEFB679B5021B0F29DB731)
Полное имя : D:\Video\Легенда о святом пропойце.1988.BDRip 1080p by msltel.mkv
Формат : Matroska
Версия формата : Version 4
Размер файла : 16,0 Гбайт
Продолжительность : 2 ч. 7 м.
Общий поток : 18,0 Мбит/сек
Название фильма : Rip by msltel
Дата кодирования : UTC 2019-07-31 02:01:07
Программа кодирования : mkvmerge v8.2.0 ('World of Adventure') 64bit
Библиотека кодирования : libebml v1.3.1 + libmatroska v1.4.2

Видео
Идентификатор : 1
Формат : AVC
Формат/Информация : Advanced Video Codec
Профиль формата : High@L4.1
Настройки формата : CABAC / 4 Ref Frames
Параметр CABAC формата : Да
Параметр RefFrames формата : 4 кадра
Идентификатор кодека : V_MPEG4/ISO/AVC
Продолжительность : 2 ч. 7 м.
Битрейт : 16,9 Мбит/сек
Ширина : 1920 пикселей
Высота : 1036 пикселей
Соотношение сторон : 1,85:1
Режим частоты кадров : Постоянный
Частота кадров : 23,976 (24000/1001) кадра/сек
Цветовое пространство : YUV
Субдискретизация насыщенности : 4:2:0
Битовая глубина : 8 бит
Тип развёртки : Прогрессивная
Бит/(Пиксели*Кадры) : 0.355
Размер потока : 15,1 Гбайт (94%)
Библиотека кодирования : x264 core 157 r2935 545de2f
Настройки программы : cabac=1 / ref=4 / deblock=1:-2:-2 / analyse=0x3:0x113 / me=umh / subme=11 / psy=1 / psy_rd=1.00:0.15 / mixed_ref=1 / me_range=32 / chroma_me=1 / trellis=2 / 8x8dct=1 / cqm=0 / deadzone=21,11 / fast_pskip=0 / chroma_qp_offset=-3 / threads=6 / lookahead_threads=1 / sliced_threads=0 / nr=0 / decimate=1 / interlaced=0 / bluray_compat=0 / constrained_intra=0 / bframes=10 / b_pyramid=2 / b_adapt=2 / b_bias=0 / direct=1 / weightb=1 / open_gop=0 / weightp=2 / keyint=230 / keyint_min=23 / scenecut=40 / intra_refresh=0 / rc_lookahead=40 / rc=crf / mbtree=1 / crf=19.0 / qcomp=0.60 / qpmin=0 / qpmax=69 / qpstep=4 / vbv_maxrate=50000 / vbv_bufsize=62500 / crf_max=0.0 / nal_hrd=none / filler=0 / ip_ratio=1.40 / aq=1:1.00
Язык : Italian
Default : Да
Forced : Нет

Аудио #1
Идентификатор : 2
Формат : AC-3
Формат/Информация : Audio Coding 3
Коммерческое название : Dolby Digital
Идентификатор кодека : A_AC3
Продолжительность : 2 ч. 7 м.
Вид битрейта : Постоянный
Битрейт : 256 Кбит/сек
Каналы : 2 канала
ChannelLayout : L R
Частота : 48,0 КГц
Частота кадров : 31,250 кадров/сек (1536 SPF)
Битовая глубина : 16 бит
Метод сжатия : С потерями
Размер потока : 234 Мбайт (1%)
Заголовок : Андрей Гаврилов
Язык : Russian
ServiceKind/String : Complete Main
Default : Да
Forced : Нет

Аудио #2
Идентификатор : 3
Формат : DTS
Формат/Информация : Digital Theater Systems
Идентификатор кодека : A_DTS
Продолжительность : 2 ч. 7 м.
Вид битрейта : Постоянный
Битрейт : 768 Кбит/сек
Каналы : 6 каналов
ChannelLayout : C L R Ls Rs LFE
Частота : 48,0 КГц
Частота кадров : 93,750 кадра/сек (512 SPF)
Битовая глубина : 24 бит
Метод сжатия : С потерями
Размер потока : 701 Мбайт (4%)
Язык : English
Default : Нет
Forced : Нет

Текст #1
Идентификатор : 4
Формат : UTF-8
Идентификатор кодека : S_TEXT/UTF8
Идентификатор кодека/Информация : UTF-8 Plain Text
Продолжительность : 2 ч. 4 м.
Битрейт : 14 бит/сек
ElementCount : 520
Размер потока : 12,8 Кбайт (0%)
Заголовок : английские
Язык : English
Default : Нет
Forced : Нет

Текст #2
Идентификатор : 5
Формат : UTF-8
Идентификатор кодека : S_TEXT/UTF8
Идентификатор кодека/Информация : UTF-8 Plain Text
Продолжительность : 2 ч. 0 м.
Битрейт : 13 бит/сек
ElementCount : 411
Размер потока : 11,8 Кбайт (0%)
Заголовок : итальянские
Язык : Italian
Default : Нет
Forced : Нет

Меню
00:00:00.000 : en:Chapter 1
00:11:24.642 : en:Chapter 2
00:19:48.979 : en:Chapter 3
00:31:52.118 : en:Chapter 4
00:41:11.385 : en:Chapter 5
00:51:34.841 : en:Chapter 6
01:02:18.776 : en:Chapter 7
01:14:02.896 : en:Chapter 8
01:24:53.338 : en:Chapter 9
01:38:14.346 : en:Chapter 10
01:45:39.541 : en:Chapter 11
01:56:25.895 : en:Chapter 12
pb.wtf



Скачать Легенда о святом пропойце через торрент https://d.radikal.ru/d18/1907/8e/16bef46bc5a6.jpg Скачать фильм Легенда о святом пропойце через торрент бесплантно в хорошем качестве О фильме: Незнакомец одаривает бездомного бродягу, главного героя, 200 франками, прося его вернуть их местной церкви, когда тот сможет; ... 5 10 1
Info! Золотая раздача, скачанное не засчитывается.
Торрент: Зарегистрирован [2019-07-31 04:52] · скачан: 2 раз
Статус: √ проверено
Размер: 16.02 GB
Как cкачать? Как скачать Легенда о святом пропойце через торрент | qTorrent

% Раздел Тема Автор DL S | L
Арт-хаус и авторское кино [ 6.3 GB ] Легенда о святом пропойце / La leggenda del santo bevitore [1988 BDRip 720p by msltel] AVO msltel Скачать
2 | 0
Фильмы (Blu-ray, BD-Remux, HDDVD) [ 36.87 GB ] Легенда о святом пропойце / La leggenda del santo bevitore / The Legend of the Holy Drinker [1988 BD Remux 1080р] [Remastered] AVO [А. Гаврилов] bober100 Скачать
1 | 0

28-11-2019 20:33  

Отключить всю рекламу на сайте

31-07-2019 04:58 Легенда о святом пропойце Скачать торрент  

Топик был перенесен из форума Фильмы с авторской озвучкой в форум Арт-хаус и авторское кино


bober100pb.wtf



31-07-2019 06:05 Легенда о святом пропойце Скачать торрент  

Рутгер Хауэр / Rutger Hauer. Он мог быть разным. И таким.pb.wtf



    Дорогой пользователь! Огромная просьба, поблагодарите релизера, оцените раздачу и оставьте свои комментарий, если Вы скачали Легенда о святом пропойце через торрент бесплатно! Внесите свою лепту в развитие PiratBit!
    Комментировать посты могут только пользователи прошедшие не сложную регистрацию
    Показать сообщения:    

    Легенда о святом пропойце через торрент
    Скачать бесплатно Легенда о святом пропойце
    Легенда о святом пропойце скачать торрент
    Легенда о святом пропойце смотреть онлайн
    Cкачать фильм Легенда о святом пропойце бесплатно
    Легенда о святом пропойце скачать торрент в хорошем качестве
    Легенда о святом пропойце смотреть онлайн бесплатно в хорошем качестве


    Вы не можете начинать темы
    Вы не можете отвечать на сообщения
    Вы не можете редактировать свои сообщения
    Вы не можете удалять свои сообщения
    Вы не можете голосовать в опросах
    Вы не можете прикреплять файлы к сообщениям
    Вы можете скачивать файлы