Ссылка на приватное зеркало всего за 1$. Внимание количество ограничено!!!

OK

1+1

iTunes

мы

OK

1

WEB-DLRip

Джокер

Пифагор

Ведьмак / The Witcher сериал

Лицензия

ПШазам

ОК

Оно 2

iTunes

30
pack

Вам бонус

ВАЖНО

!!Акция!!

Alien_RageХит недели

RePack

Resident Evil 21

ИГРА 18+

pack

RePack

jed

!!Акция!!

Alien_Rage

RePack

fifa19

RePack

Assassins Creed: Odyssey

RePack

NEED FOR SPEED™ PAYBACK

4 сезон

9 сезон

Бесстыжие 9 сезон

Все сериалы

все сериалы на PB.wtf

RePack

FAR CRY 5
  

Тайна (Фаик Гасанов) [1963, СССР, детский, приключения, VHSRip от AVP Studio] pb.wtf

Тайна через торрент pb.wtf

Раздают: 1 [ 0 KB/s ]
Размер: 745 MB | Добавлен: 5 мес. 20 д. назад | Торрент скачан:8 раз
Скачать  

31-07-2019 08:16 Тайна Скачать торрент  

Тайна
Страна: СССР
Производство: Одесская киностудия

Жанр: детский, приключения
Год выпуска: 1963
Продолжительность: 01:03:23

Перевод: Не требуется
Cубтитры: нет
Оригинальная аудиодорожка: русский

Режиссер: Фаик Гасанов

В ролях:
Володя Дибров, Андрей Кутилин, Валерий Зубарев, С. Власов, Сергей Ермилов, Г. Голубев, Л. Климанова, Вова Фурманкевич, А. Мандрыкин, Вячеслав Подвиг, Л. Боляев, В. Воронецкий, В. Гласов, Е. Грек, А. Калугина, Г. Каркуциев, О. Карпук, А. Козеев, С. Милюков, В. Чистяков...
Об актёрах подробней

Описание:
О приключениях ребят одного пионерского лагеря во время летнего турпохода.
В пионерский отряд пришел новый вожатый Артем - студент-геофизик и турист. Ребята этому очень обрадовались, но их ждало разочарование - новый пионервожатый имел массу личных забот...

Исходник: S-VHS
Качество видео: VHSRip
Формат видео: AVI

Видео: 704x528 (4:3), 25,000 кадров/сек, XviD ~ 1441 kbps avg, 0.155 bit/pixel
Аудио: 48 kHz, Dolby Digital AC3 2.0, 192 kbps

Раздача от:
Общее
Полное имя : Tayna.1963.VHSRip_[New-team]_by_AVP_Studio.avi
Формат : AVI
Формат/Информация : Audio Video Interleave
Размер файла : 745 Мбайт
Продолжительность : 1 ч. 3 м.
Общий поток : 1643 Кбит/сек
Программа кодирования : VirtualDubMod 1.5.10.3 | www.virtualdub-fr.org || (build 2550/release)
Библиотека кодирования : VirtualDubMod build 2550/release

Видео
Идентификатор : 0
Формат : MPEG-4 Visual
Профиль формата : Advanced Simple@L5
Настройки формата : BVOP1 / Custom Matrix
Параметр BVOP формата : 1
Параметр QPel формата : Нет
Параметр GMC формата : Без точки перехода
Параметр матрицы формата : Выборочная
Идентификатор кодека : XVID
Идентификатор кодека/Подсказка : XviD
Продолжительность : 1 ч. 3 м.
Битрейт : 1441 Кбит/сек
Ширина : 704 пикселя
Высота : 528 пикселей
Соотношение сторон : 4:3
Частота кадров : 25,000 кадров/сек
Цветовое пространство : YUV
Субдискретизация насыщенности : 4:2:0
Битовая глубина : 8 бит
Тип развёртки : Прогрессивная
Метод сжатия : С потерями
Бит/(Пиксели*Кадры) : 0.155
Размер потока : 653 Мбайт (88%)
Библиотека кодирования : XviD 73

Аудио
Идентификатор : 1
Формат : AC-3
Формат/Информация : Audio Coding 3
Коммерческое название : Dolby Digital
Идентификатор кодека : 2000
Продолжительность : 1 ч. 3 м.
Вид битрейта : Постоянный
Битрейт : 192 Кбит/сек
Каналы : 2 канала
ChannelLayout : L R
Частота : 48,0 КГц
Частота кадров : 31,250 кадров/сек (1536 SPF)
Битовая глубина : 16 бит
Метод сжатия : С потерями
Размер потока : 87,1 Мбайт (12%)
Выравнивание : Разделение по промежуткам
Продолжительность промежутка : 40 мс. (1,00 видеокадр)
Время предзагрузки промежутка : 500 мс.
pb.wtf



Скачать Тайна через торрент http://a.radikal.ru/a18/1912/2d/fd35aa5a7d94.png Скачать фильм Тайна через торрент бесплантно в хорошем качестве Описание:О приключениях ребят одного пионерского лагеря во время летнего турпохода.В пионерский отряд пришел новый вожатый Артем - ... 10 10 1
Торрент: Зарегистрирован [2019-07-31 08:16] · скачан: 8 раз
Статус: √ проверено
Размер: 745 MB
Как cкачать? Как скачать Тайна через торрент | qTorrent

% Раздел Тема Автор DL S | L
S.T.A.L.K.E.R. [ 3.13 GB ] Сталкер: Тень Чернобыля: Тайные Тропы 2 2011 [RePack RU/ RU Shooter Action TPS] от cdman Typucm Скачать
2 | 0
Иностранные мультфильмы [ 1.37 GB ] Тайна красной планеты / Mars Needs Moms [2011 мультфильм HDRip лицензия] Lil Badun Скачать
1 | 0
Наши сериалы [ 5.27 GB ] Тайная стража [2005 . DVDRip] Инсайдер Скачать
1 | 0
Зарубежные сериалы [ 75.5 GB ] Тайны Смолвиля / Smallville 1-10 сезон [2001-2011 DVDRip] piloter Скачать
1 | 0
Научно-популярные фильмы [ 12.83 GB ] Запретные темы истории Загадки Древнего Египта Неизвестная Мексика Перу и Боливия Ковчег завета Восточная коллекция Земля обетованная Тайна Йонагуни Невозможный Нан-Мадол [2003-2011 Документальный DVDRip] Stargate_Universe Скачать
1 | 0
Discovery [ 1.29 GB ] Discovery: Тайна убийства Гитлера / Discovery: Virtual History: Secret plot to kill Hitler [2004 Документальный DVDRip] VintMosina Скачать
1 | 0
Порно фильмы с сюжетом [ 1.37 GB ] Une vieille maitresse / Тайная любовница [2007 эротика DVDRip] [RU перевод] Majestro Скачать
1 | 0


Последний раз редактировалось: AVP Studio (2019-12-09 09:15), всего редактировалось 2 раз(а)

28-11-2019 20:33  

Отключить всю рекламу на сайте

31-07-2019 09:58 Тайна Скачать торрент  

Топик был перенесен из форума Кино СССР в форум Детские отечественные фильмы


bober100pb.wtf



    Дорогой пользователь! Огромная просьба, поблагодарите релизера, оцените раздачу и оставьте свои комментарий, если Вы скачали Тайна через торрент бесплатно! Внесите свою лепту в развитие PiratBit!
    Комментировать посты могут только пользователи прошедшие не сложную регистрацию
    Показать сообщения:    

    Тайна через торрент
    Скачать бесплатно Тайна
    Тайна скачать торрент
    Тайна смотреть онлайн
    Cкачать фильм Тайна бесплатно
    Тайна скачать торрент в хорошем качестве
    Тайна смотреть онлайн бесплатно в хорошем качестве


    Вы не можете начинать темы
    Вы не можете отвечать на сообщения
    Вы не можете редактировать свои сообщения
    Вы не можете удалять свои сообщения
    Вы не можете голосовать в опросах
    Вы не можете прикреплять файлы к сообщениям
    Вы можете скачивать файлы