новый адрес пиратбит piratbit
Мега распродажа FORZA HORIZON 4 ULTIMATE+ВСЕ DLC+ОНЛАЙН всего за 499р. 349 руб. (супер цена). Внимание количество ограничено!!!

iTunes

1+1

iTunes

мы

iTunes

1

iTunes

Чернобыль

iTunes

Ральф против интернета

Лицензия

ПШазам

Лицензия

Игра престолов

Лицензия

30
pack

ВАЖНО

!!Акция!!

Alien_RageХит недели

RePack

Resident Evil 21

ИГРА 18+

pack

RePack

Metro:Exodus

!!Акция!!

Alien_Rage

RePack

fifa19

RePack

Assassins Creed: Odyssey

RePack

NEED FOR SPEED™ PAYBACK

3 сезон

9 сезон

Бесстыжие 9 сезон

Все сериалы

все сериалы на PB.wtf

RePack

FAR CRY 5
Ребята, катастрофически не хватает 1900р. для оплаты серверов за Октябрь (всвязи с блокировками трафик упал в 3 раза), 1-2р., выручайте.
  

Пенниуорт / Pennyworth / Сезон: 1 / Серии: 1-10 из 10 (Роб Бэйли, Билл Иглз, Дэнни Кэннон) [2019, боевик, драма, криминал, WEB-DL 1080p] [MVO] (TVShows) pb.wtf

Пенниуорт через торрент pb.wtf

Размер: 30.18 GB | Добавлен: 1 мес. 12 д. назад | Торрент скачан:2 раза
Скачать  

31-07-2019 15:51 Пенниуорт Скачать торрент  



Пенниуорт / Pennyworth



Год выпуска: 2019
Страна: США
Жанр: Боевик, драма, криминал
Продолжительность: 01:11:00

Перевод: Профессиональный (многоголосый) *TVShows*

Режиссёр: Роб Бэйли, Билл Иглз, Дэнни Кэннон

В ролях: Джек Бэннон, Палома Фэйт, Бен Элдридж, Джейсон Флеминг, Хэйнсли Ллойд Беннетт, Дороти Эткинсон, Эмма Коррин, Райан Флетчер, Иан Палстон-Дэвис, Ники Виккери

Описание: После демобилизации из армии Альфред Пенниуорт (Джек Бэннон) пытается устроиться среди гражданских, и, что часто случается с военными, начинает как вышибала в ночном клубе. Эта приземленная работа вызывает большое неудовольствие его отца, профессионального дворецкого. Продолжая мечтать о чем-то большем, Альфред встречает Томаса Уэйна (Бен Элдридж) - прямолинейного финансового аналитика, расследующего экономические преступления и заговоры. Пенниуорт освобождает сестру нового знакомого от подозрительных личностей, чем демонстрирует, что бывших солдат не бывает, как бы ему ни хотелось забыть о своем военном прошлом. Тем более что еще не время терять хватку: безопасности королевства угрожают тайные организации, которые собираются изменить будущее британского государства и всего мира.
rating

Качество: WEB-DL 1080p | Pennyworth.S01.1080p.AMZN.WEB-DL.DDP5.1.H.264-NTG
Контейнер: MKV
Видео: MPEG-4 AVC, ~ 5937 Кбит/с, 1920x1080
Аудио №1: Русский AC3 AC3 5.1, 48 kHz,, 384 kbps
Аудио №2: Английский E-AC3 5.1, 48 kHz, 640 kbps
Субтитры: английские
Реклама: отсутствует
General
Unique ID : 190635691170764008104707454615852202993 (0x8F6B193E786E61BB8064D5FBD234BBF1)
Complete name : E:\Pennyworth.S01.1080p.TVShows\Pennyworth.S01E01.1080p.TVShows.mkv
Format : Matroska
Format version : Version 4 / Version 2
File size : 3.49 GiB
Duration : 1 h 11 min
Overall bit rate : 6 963 kb/s
Encoded date : UTC 2019-07-31 07:09:06
Writing application : mkvmerge v33.1.0 ('Primrose') 64-bit
Writing library : libebml v1.3.7 + libmatroska v1.5.0

Video
ID : 1
Format : AVC
Format/Info : Advanced Video Codec
Format profile : High@L4
Format settings : CABAC / 4 Ref Frames
Format settings, CABAC : Yes
Format settings, RefFrames : 4 frames
Codec ID : V_MPEG4/ISO/AVC
Duration : 1 h 11 min
Bit rate mode : Constant
Bit rate : 5 801 kb/s
Nominal bit rate : 10 000 kb/s
Width : 1 920 pixels
Height : 1 080 pixels
Display aspect ratio : 16:9
Frame rate mode : Constant
Frame rate : 23.976 (24000/1001) FPS
Color space : YUV
Chroma subsampling : 4:2:0
Bit depth : 8 bits
Scan type : Progressive
Bits/(Pixel*Frame) : 0.117
Stream size : 2.91 GiB (83%)
Default : Yes
Forced : No
Color range : Limited
Color primaries : BT.709
Transfer characteristics : BT.709
Matrix coefficients : BT.709

Audio #1
ID : 2
Format : AC-3
Format/Info : Audio Coding 3
Format settings, Endianness : Big
Codec ID : A_AC3
Duration : 1 h 11 min
Bit rate mode : Constant
Bit rate : 384 kb/s
Channel(s) : 6 channels
Channel positions : Front: L C R, Side: L R, LFE
Sampling rate : 48.0 kHz
Frame rate : 31.250 FPS (1536 SPF)
Bit depth : 16 bits
Compression mode : Lossy
Stream size : 197 MiB (6%)
Title : TVShows
Language : Russian
Service kind : Complete Main
Default : No
Forced : Yes

Audio #2
ID : 3
Format : E-AC-3
Format/Info : Enhanced Audio Coding 3
Format settings, Endianness : Big
Codec ID : A_EAC3
Duration : 1 h 11 min
Bit rate mode : Constant
Bit rate : 640 kb/s
Channel(s) : 6 channels
Channel positions : Front: L C R, Side: L R, LFE
Sampling rate : 48.0 kHz
Frame rate : 187.500 FPS (256 SPF)
Compression mode : Lossy
Stream size : 328 MiB (9%)
Title : Original
Language : English
Service kind : Complete Main
Default : No
Forced : No

Text
ID : 4
Format : UTF-8
Codec ID : S_TEXT/UTF8
Codec ID/Info : UTF-8 Plain Text
Title : English
Language : English
Default : No
Forced : No
скриншот  скриншот  скриншот  
Когда раздача ведётся путём добавления новых серий, при каждом добавлении создётся новый торрент. Чтобы начать докачку новой серии, пользователям необходимо сделать следующее:
(1) остановить скачивание,
(2) удалить старый торрент у себя из клиента (старые серии удалять не надо),
(3) скачать новый торрент и запустить его у себя в клиенте вместо старого, при этом указать клиенту путь в старую папку, куда и должно происходить скачивание новых серий.
Ваш клиент при этом должен произвести хеширование (проверку) старой папки (если не производит сам - помогите ему сделать это), и будет докачивать только те серии, которых у вас ещё нет.Старые серии при этом не удаляются, а продолжают раздаваться!
Eсли вы уже удалили старые серии, то предотвратить повторную закачку старых серий можно, отжав галочку в соответсвующих местах при запуске нового торрента. По возможности, желательно не удалять старые серии как можно дольше, чтобы релизёр не столько продолжал раздавать старые серии, а смог сконцентрироваться на новых.
pb.wtf



Скачать Пенниуорт через торрент https://www.thetvdb.com/banners/graphical/5d017365688d4.jpg Скачать фильм Пенниуорт через торрент бесплантно в хорошем качестве Описание: После демобилизации из армии Альфред Пенниуорт (Джек Бэннон) пытается устроиться среди гражданских, и, что часто случается с ... 10 10 2
Торрент: Зарегистрирован [2019-10-02 16:08] · скачан: 2 раз
Статус: √ проверено
Размер: 30.18 GB
Как cкачать? Как скачать Пенниуорт через торрент | qTorrent

% Раздел Тема Автор DL S | L
Зарубежные сериалы [ 31.19 GB ] Пенниуорт / Pennyworth / Сезон: 1 / Серии: 1-10 из 10 [2019 WEB-DL 1080p] MVO [Lostfilm] bober100 Скачать
1 | 0
Зарубежные сериалы [ 17.45 GB ] Пенниуорт / Pennyworth / Сезон: 1 / Серии: 1-10 из 10 [2019 WEB-DL 720p] DUB [Lucky Production] +MVO [Lostfilm] bober100 Скачать
1 | 0
Зарубежные сериалы [ 31.19 GB ] Пенниуорт / Pennyworth / Сезон: 1 / Серии: 1-10 из 10 [2019 WEB-DL 1080p] [MVO] killermax2013 Скачать
1 | 0
Зарубежные сериалы [ 6.04 GB ] Пенниуорт / Pennyworth / Сезон: 1 / Серии: 1-10 из 10 [2019 WEBRip-AVC] [DVO] killermax2013 Скачать
1 | 0
Зарубежные сериалы [ 15.25 GB ] Пенниуорт / Pennyworth / Сезон: 1 / Серии: 1-10 из 10 [2019 WEB-DL 720p] [MVO] killermax2013 Скачать
2 | 0
Зарубежные сериалы [ 7.85 GB ] Пенниуорт / Pennyworth / Сезон: 1 / Серии: 1-10 из 10 [2019 WEB-DLRip] killermax2013 Скачать
3 | 0
Зарубежные сериалы [ 29.88 GB ] Пенниуорт / Pennyworth / Сезон: 1 / Серии: 1-10 из 10 [2019 WEB-DL 1080p] killermax2013 Скачать
1 | 0


>> Регистрируемся здесь <<






Отзывы и комментарии о схеме читаем и пишем здесь: ---> Отзывы и комментарии о схеме

Новые благодарочки в телеграм довольных пользователей:
скриншот   скриншот   скриншот   скриншот   скриншот
    Дорогой пользователь! Огромная просьба, поблагодарите релизера, оцените раздачу и оставьте свои комментарий, если Вы скачали Пенниуорт через торрент бесплатно! Внесите свою лепту в развитие PiratBit!
    Комментировать посты могут только пользователи прошедшие не сложную регистрацию
    Показать сообщения:    

    Пенниуорт через торрент
    Скачать бесплатно Пенниуорт
    Пенниуорт скачать торрент
    Пенниуорт смотреть онлайн
    Cкачать фильм Пенниуорт бесплатно
    Пенниуорт скачать торрент в хорошем качестве
    Пенниуорт смотреть онлайн бесплатно в хорошем качестве


    Вы не можете начинать темы
    Вы не можете отвечать на сообщения
    Вы не можете редактировать свои сообщения
    Вы не можете удалять свои сообщения
    Вы не можете голосовать в опросах
    Вы не можете прикреплять файлы к сообщениям
    Вы можете скачивать файлы