MEGA SALE -50% FORZA HORIZON 4 ULTIMATE+ВСЕ DLC+ОНЛАЙН всего за 599р. 299 руб. (супер цена). Внимание количество ограничено!!!

iTunes

1+1

iTunes

мы

iTunes

1

iTunes

Чернобыль

iTunes

Ральф против интернета

Лицензия

ПШазам

Лицензия

Игра престолов

Лицензия

30
pack

ВАЖНО

!!Акция!!

Alien_RageХит недели

RePack

Resident Evil 21

ИГРА 18+

pack

RePack

Metro:Exodus

!!Акция!!

Alien_Rage

RePack

fifa19

RePack

Assassins Creed: Odyssey

RePack

NEED FOR SPEED™ PAYBACK

3 сезон

9 сезон

Бесстыжие 9 сезон

Все сериалы

все сериалы на PB.wtf

RePack

FAR CRY 5
Ребята, катастрофически не хватает 7730р. для оплаты серверов за АВГУСТ (всвязи с блокировками трафик упал в 3 раза), 1-2р., выручайте.
  

Крайний космос / Final Space / Сезон: 2 / Серии: 1-12 из 13 (Олэн Роджерс / Olan Rogers) [2019, Мультфильм, приключение, комедия, фантастика, WEB-DL 720p] [DVO] [Кубик в Кубе] pb.wtf

Крайний космос через торрент pb.wtf

Раздают: 3 [ 20 KB/s ] Качают: 4 [ 0 KB/s ]
Размер: 6.72 GB | Добавлен: 20 ч. назад | Торрент скачан:3 раза
Скачать  

31-07-2019 16:11 Крайний космос Скачать торрент  

Крайний космос / Космический рубеж / Космо-Рубеж / Final Space

Страна: США
Жанр: Мультфильм, приключение, комедия, фантастика
Продолжительность серии: 1x ~ 00:22:00
Год выпуска: 2019

Перевод: Профессиональный (двухголосый закадровый) [Кубик в Кубе]
Субтитры: Отсутствуют

Режиссёр: Олэн Роджерс / Olan Rogers

Роли озвучивали: Фред Армисен, Том Кенни, Олэн Роджерс, Тика Самптер, Дэвид Теннант, Стивен Юн, Коути Гэлловэй, Джина Торрес, Рон Перлман, Джон Ди Маджио

Описание: Мультсериал знакомит с межзвёздным лузером — астронавтом по имени Гэри — и его домашним любимцем Пряником, владеющим полезным навыком уничтожать планеты. Вместе они приступают к путешествиям по космосу, чтобы разгадать, где заканчивается Вселенная.

rating

Качество: WEB-DL 720p
Формат: MKV

Видео: 1280x720, 23.976 fps, MPEG-4 AVC, 3 977 Kbps avg
Аудио: 48.0 KHz, AC-3, 2 ch, ~ 384 Kbps avg

Format                              : Matroska
Format version : Version 2
File size : 686 MiB
Duration : 21mn 32s
Overall bit rate mode : Constant
Overall bit rate : 4 450 Kbps
Encoded date : UTC 2019-07-25 08:05:59
Writing application : mkvmerge v4.9.1 ('Ich will') built on Sep 21 2011 17:48:11
Writing library : libebml v1.2.1 + libmatroska v1.2.0
DURATION : 00:21:32.875000000
NUMBER_OF_FRAMES : 30998
NUMBER_OF_BYTES : 656768992
_STATISTICS_WRITING_APP : mkvmerge v23.0.0 ('The Bride Said No') 64-bit
_STATISTICS_WRITING_DATE_UTC : 2019-06-25 07:16:23
_STATISTICS_TAGS : BPS DURATION NUMBER_OF_FRAMES NUMBER_OF_BYTES

Video
ID : 1
Format : AVC
Format/Info : Advanced Video Codec
Format profile : High@L3.1
Format settings, CABAC : Yes
Format settings, ReFrames : 4 frames
Codec ID : V_MPEG4/ISO/AVC
Duration : 21mn 32s
Bit rate mode : Constant
Bit rate : 3 977 Kbps
Nominal bit rate : 6 000 Kbps
Width : 1 280 pixels
Height : 720 pixels
Display aspect ratio : 16:9
Frame rate : 23.976 fps
Color space : YUV
Chroma subsampling : 4:2:0
Bit depth : 8 bits
Scan type : Progressive
Bits/(Pixel*Frame) : 0.180
Stream size : 613 MiB (89%)
Color primaries : BT.709-5, BT.1361, IEC 61966-2-4, SMPTE RP177
Transfer characteristics : BT.709-5, BT.1361
Matrix coefficients : BT.709-5, BT.1361, IEC 61966-2-4 709, SMPTE RP177

Audio
ID : 2
Format : AC-3
Format/Info : Audio Coding 3
Mode extension : CM (complete main)
Codec ID : A_AC3
Duration : 21mn 32s
Bit rate mode : Constant
Bit rate : 384 Kbps
Channel(s) : 2 channels
Channel positions : Front: L R
Sampling rate : 48.0 KHz
Bit depth : 16 bits
Compression mode : Lossy
Stream size : 59.2 MiB (9%)
скриншот  скриншот  скриншот  
Когда раздача ведётся путём добавления новых серий, при каждом добавлении создётся новый торрент. Чтобы начать докачку новой серии, пользователям необходимо сделать следующее:
(1) остановить скачивание,
(2) удалить старый торрент у себя из клиента (старые серии удалять не надо),
(3) скачать новый торрент и запустить его у себя в клиенте вместо старого, при этом указать клиенту путь в старую папку, куда и должно происходить скачивание новых серий.
Ваш клиент при этом должен произвести хеширование (проверку) старой папки (если не производит сам - помогите ему сделать это), и будет докачивать только те серии, которых у вас ещё нет.Старые серии при этом не удаляются, а продолжают раздаваться!
Eсли вы уже удалили старые серии, то предотвратить повторную закачку старых серий можно, отжав галочку в соответсвующих местах при запуске нового торрента. По возможности, желательно не удалять старые серии как можно дольше, чтобы релизёр не столько продолжал раздавать старые серии, а смог сконцентрироваться на новых.
pb.wtf
Kkillermax2013 писал(а):

+ 12 серия



Скачать Крайний космос через торрент https://i110.fastpic.ru/big/2019/0704/ed/571bcf3085d73a6f8a87debeec56cbed.jpg Скачать фильм Крайний космос через торрент бесплантно в хорошем качестве Описание: Мультсериал знакомит с межзвёздным лузером — астронавтом по имени Гэри — и его домашним любимцем Пряником, владеющим полезным ... 10 10 4
Торрент: Зарегистрирован [2019-09-21 20:15] · скачан: 3 раз
Статус: √ проверено
Размер: 6.72 GB
Как cкачать? Как скачать Крайний космос через торрент | qTorrent


>> Регистрируемся здесь <<






Отзывы и комментарии о схеме читаем и пишем здесь: ---> Отзывы и комментарии о схеме

Новые благодарочки в телеграм довольных пользователей:
скриншот   скриншот   скриншот   скриншот   скриншот
    Дорогой пользователь! Огромная просьба, поблагодарите релизера, оцените раздачу и оставьте свои комментарий, если Вы скачали Крайний космос через торрент бесплатно! Внесите свою лепту в развитие PiratBit!
    Комментировать посты могут только пользователи прошедшие не сложную регистрацию
    Показать сообщения:    

    Крайний космос через торрент
    Скачать бесплатно Крайний космос
    Крайний космос скачать торрент
    Крайний космос смотреть онлайн
    Cкачать фильм Крайний космос бесплатно
    Крайний космос скачать торрент в хорошем качестве
    Крайний космос смотреть онлайн бесплатно в хорошем качестве


    Вы не можете начинать темы
    Вы не можете отвечать на сообщения
    Вы не можете редактировать свои сообщения
    Вы не можете удалять свои сообщения
    Вы не можете голосовать в опросах
    Вы не можете прикреплять файлы к сообщениям
    Вы можете скачивать файлы