новый адрес
Ссылка на приватное зеркало всего за 1$. Внимание количество ограничено!!!

iTunes

1+1

iTunes

мы

WEB-DL

1

iTunes

Чернобыль

iTunes

Ральф против интернета

Лицензия

ПШазам

Лицензия

Оно 2

Лицензия

30
pack

Вам бонус

ВАЖНО

!!Акция!!

Alien_RageХит недели

RePack

Resident Evil 21

ИГРА 18+

pack

RePack

jed

!!Акция!!

Alien_Rage

RePack

fifa19

RePack

Assassins Creed: Odyssey

RePack

NEED FOR SPEED™ PAYBACK

3 сезон

9 сезон

Бесстыжие 9 сезон

Все сериалы

все сериалы на PB.wtf

RePack

FAR CRY 5
Ребята, катастрофически не хватает 1900р. для оплаты серверов за Октябрь (всвязи с блокировками трафик упал в 3 раза), 1-2р., выручайте.
  

Форсаж: Хоббс и Шоу / Fast & Furious Presents: Hobbs & Shaw (Дэвид Литч) [2019, боевик, приключения, WEB-DL 1080p] [ENG] pb.wtf

Форсаж: Хоббс и Шоу через торрент pb.wtf

Размер: 3.84 GB | Добавлен: 2 мес. 14 д. назад | Торрент скачан:26 раз
Скачать  

31-07-2019 19:05 Форсаж: Хоббс и Шоу Скачать торрент  

Форсаж: Хоббс и Шоу / Fast & Furious Presents: Hobbs & Shaw Год выпуска: 2019
Страна: Великобритания, США
Жанр: боевик, приключения
Продолжительность: 02:15:16
Перевод: Отсутствует! [английский оригинал]
субтитры: английские

Режиссер: Дэвид Литч

В ролях: Дуэйн Джонсон, Джейсон Стэйтем, Идрис Эльба, Ванесса Кирби, Хелен Миррен, Эйса Гонсалес, Эдди Марсан, Eliana Sua, Клифф Кёртис, Lori Pelenise Tuisano

Описание: Люк Хоббс — американский элитный спецагент, он любит удобную спортивную одежду, большие пикапы и здоровое питание. Декард Шоу — британский пижон, бывший сотрудник разведки, предпочитает дорогие костюмы, спортивные авто и длинноногих красоток.

Эти двое ненавидят друг друга. Но если кто-то угрожает их семьям, они готовы пойти на все. Даже на работу в команде.

rating

Качество: WEB-DL 1080p
Формат: MKV

Видео: V_MPEG4/ISO/AVC, 3 600 Кбит/с, 1920x800
Аудио: AC3, 2 ch, 384 Кбит/с
General
Unique ID : 246835485521072685476496856731168689062 (0xB9B2C908C7F8E5C2B7BB07A325A24BA6)
Complete name : E:\Fast.and.Furious.Presents.Hobbs.and.Shaw.2019.1080p.WEB-DL.X264.AC3-EVO[TGx]\Fast.and.Furious.Presents.Hobbs.and.Shaw.2019.1080p.WEB-DL.X264.AC3-EVO.mkv
Format : Matroska
Format version : Version 4 / Version 2
File size : 3.84 GiB
Duration : 2 h 15 min
Overall bit rate : 4 043 kb/s
Movie name : EVO
Encoded date : UTC 2019-09-26 11:02:48
Writing application : mkvmerge v6.7.0 ('Back to the Ground') 64bit built on Jan 8 2014 15:10:52
Writing library : libebml v1.3.0 + libmatroska v1.4.1

Video
ID : 1
Format : AVC
Format/Info : Advanced Video Codec
Format profile : High@L4.1
Format settings : CABAC / 4 Ref Frames
Format settings, CABAC : Yes
Format settings, RefFrames : 4 frames
Codec ID : V_MPEG4/ISO/AVC
Duration : 2 h 15 min
Bit rate : 3 578 kb/s
Width : 1 920 pixels
Height : 800 pixels
Display aspect ratio : 2.40:1
Frame rate mode : Constant
Frame rate : 23.976 (24000/1001) FPS
Color space : YUV
Chroma subsampling : 4:2:0
Bit depth : 8 bits
Scan type : Progressive
Bits/(Pixel*Frame) : 0.097
Stream size : 3.40 GiB (89%)
Default : Yes
Forced : No
Color range : Limited
Color primaries : BT.709
Transfer characteristics : BT.709
Matrix coefficients : BT.709

Audio
ID : 2
Format : AC-3
Format/Info : Audio Coding 3
Format settings, Endianness : Big
Codec ID : A_AC3
Duration : 2 h 15 min
Bit rate mode : Constant
Bit rate : 384 kb/s
Channel(s) : 2 channels
Channel positions : Front: L R
Sampling rate : 48.0 kHz
Frame rate : 31.250 FPS (1536 SPF)
Bit depth : 16 bits
Compression mode : Lossy
Delay relative to video : 68 ms
Stream size : 373 MiB (9%)
Language : English
Service kind : Complete Main
Default : Yes
Forced : No

Text
ID : 3
Format : UTF-8
Codec ID : S_TEXT/UTF8
Codec ID/Info : UTF-8 Plain Text
Language : English
Default : Yes
Forced : No
скриншот   скриншот   скриншот  
pb.wtf
Kkillermax2013 писал(а):

Замена WEBRip 1080 >>> WEB-DL 1080



Скачать Форсаж: Хоббс и Шоу через торрент https://i90.fastpic.ru/big/2019/0731/34/cd9ba9146c6297e1f6ba8cf610547334.jpg Скачать фильм Форсаж: Хоббс и Шоу через торрент бесплантно в хорошем качестве Описание: Люк Хоббс — американский элитный спецагент, он любит удобную спортивную одежду, большие пикапы и здоровое питание. Декард Шоу — ... 8.6 10 13
Торрент: Зарегистрирован [2019-09-26 14:27] · скачан: 26 раз
Статус: √ проверено
Размер: 3.84 GB
Как cкачать? Как скачать Форсаж: Хоббс и Шоу через торрент | qTorrent



Последний раз редактировалось: killermax2013 (2019-09-26 14:27), всего редактировалось 1 раз

28-11-2019 20:33  

Отключить всю рекламу на сайте

26-09-2019 16:20 Форсаж: Хоббс и Шоу Скачать торрент  

Хоббс на скрине бухой)pb.wtf



    Дорогой пользователь! Огромная просьба, поблагодарите релизера, оцените раздачу и оставьте свои комментарий, если Вы скачали Форсаж: Хоббс и Шоу через торрент бесплатно! Внесите свою лепту в развитие PiratBit!
    Комментировать посты могут только пользователи прошедшие не сложную регистрацию
    Показать сообщения:    

    Форсаж: Хоббс и Шоу через торрент
    Скачать бесплатно Форсаж: Хоббс и Шоу
    Форсаж: Хоббс и Шоу скачать торрент
    Форсаж: Хоббс и Шоу смотреть онлайн
    Cкачать фильм Форсаж: Хоббс и Шоу бесплатно
    Форсаж: Хоббс и Шоу скачать торрент в хорошем качестве
    Форсаж: Хоббс и Шоу смотреть онлайн бесплатно в хорошем качестве


    Вы не можете начинать темы
    Вы не можете отвечать на сообщения
    Вы не можете редактировать свои сообщения
    Вы не можете удалять свои сообщения
    Вы не можете голосовать в опросах
    Вы не можете прикреплять файлы к сообщениям
    Вы можете скачивать файлы