Ссылка на приватное зеркало всего за 1$. Внимание количество ограничено!!!

OK

1+1

iTunes

мы

OK

1

WEB-DLRip

Джокер

Пифагор

Ведьмак / The Witcher сериал

Лицензия

ПШазам

ОК

Оно 2

iTunes

30
pack

Вам бонус

ВАЖНО

!!Акция!!

Alien_RageХит недели

RePack

Resident Evil 21

ИГРА 18+

pack

RePack

jed

!!Акция!!

Alien_Rage

RePack

fifa19

RePack

Assassins Creed: Odyssey

RePack

NEED FOR SPEED™ PAYBACK

4 сезон

9 сезон

Бесстыжие 9 сезон

Все сериалы

все сериалы на PB.wtf

RePack

FAR CRY 5
  

Стражи Галактики. Часть 2 3Д / Guardians of the Galaxy. Vol. 2 3D (Джеймс Ганн) [2017, Фантастика, боевик, приключения, комедия, BDRip 1080p, (IMAX Edition)] [Half OverUnder] DUB (rus, ukr) [Лицензия] pb.wtf

Стражи Галактики. Часть 2 3Д через торрент pb.wtf

Размер: 13.2 GB | Добавлен: 5 мес. 20 д. назад | Торрент скачан:39 раз
Скачать  

31-07-2019 19:47 Стражи Галактики. Часть 2 3Д Скачать торрент  

Стражи Галактики. Часть 2 3Д
Guardians of the Galaxy. Vol. 2 3D
«Этим летом галактика не спасёт себя»(IMAX версия)
Год выпуска: 2017
Страна: США
Жанр: Фантастика, боевик, приключения, комедия
Продолжительность: 02:15:46
Перевод: Дублированный | Лицензия
Субтитры:
Вшитые (softsub):
#1 - Русские Форсированные (включены по умолчанию)
#2 - Русские Полные
#3 - Русские Коментарии режиссёра Джеймса Ганна
#4 - Украинские Форсированные (перевод madagaskar1)
#5 - Украинские Полные (перевод vovikmar)
#6 - English Full
#7 - English SDH

Внешние (UTF-8):
#1 - Русские Форсированные (включены по умолчанию)
#2 - Русские Полные
#3 - Украинские Форсированные (перевод madagaskar1)

Режиссер: Джеймс Ганн

rating

В ролях:

Крис Пратт (Peter Quill / Star-Lord), Зои Салдана (Gamora), Дэйв Батиста (Drax), Вин Дизель (Baby Groot, озвучка), Брэдли Купер (Rocket, озвучка), Майкл Рукер (Yondu), Карен Гиллан (Nebula), Пом Клементьефф (Mantis), Элизабет Дебики (Ayesha), Курт Рассел (Ego), Сильвестр Сталлоне (Stakar Ogord), Крис Салливан (Taserface)
Описание: Все в сборе: землянин Питер Квилл (Звездный Лорд), молчаливый громила Дракс, зеленокожая наемница Гамора, живое дерево Грут и говорящий енот. Герои не изменяют себе и с завидной регулярностью продолжают попадать в немыслимые ситуации, выпутываясь из них почти без ущерба (а иногда даже с пользой) для окружающих. На этот раз им предстоит раскрыть одну из самых главных тайн во всей Галактике: кто же на самом деле отец Питера Квилла?

Качество: BDRip 1080p
Формат: MKV

Видео: AVC / 1920х1080p / 23,976 fps / 12.0 Mb/s
Аудио#1: Русский / AC3 / 48 KHz / 5.1 ch / 640 Kbps (Дубляж - BD CEE)
Аудио#2: Украинский / AC3 / 48 KHz / 5.1 ch / 640 Kbps (Дубляж) (Спасибо Hurtom!)
Аудио#3: Английский / AC3 / 48 KHz / 5.1 ch / 640 Kbps (Original - BD 3D)
Формат 3D: Half OverUnder / Вертикальная анаморфная стереопара
Порядок ракурсов: левый ракурс первый
скриншот  скриншот  скриншот  скриншот  скриншот  

скриншот  скриншот  скриншот  скриншот  скриншот  

General
Unique ID : 239731627386236789391293876596809714063 (0xB45AA1C970B188459C011F8FF980C98F)
Complete name : D:GuardiansOfTheGalaxy2(2017)3D-halfOU(Ash61)GuardiansOfTheGalaxy2(2017)3D-halfOU(Ash61).mkv
Format : Matroska
Format version : Version 2
File size : 13.2 GiB
Duration : 2 h 15 min
Overall bit rate : 13.9 Mb/s
Movie name : Стражи Галактики. Часть 2 / Guardians of the Galaxy Vol. 2 (2017) в 3Д
Encoded date : UTC 2017-09-21 16:04:05
Writing application : mkvmerge v5.8.0 ('No Sleep / Pillow') built on Sep 2 2012 15:37:04
Writing library : libebml v1.2.3 + libmatroska v1.3.0

Video
ID : 1
Format : AVC
Format/Info : Advanced Video Codec
Format profile : High@L4.1
Format settings, CABAC : Yes
Format settings, RefFrames : 4 frames
Codec ID : V_MPEG4/ISO/AVC
Duration : 2 h 15 min
Bit rate : 12.0 Mb/s
Width : 1 920 pixels
Height : 1 080 pixels
Display aspect ratio : 16:9
Frame rate mode : Constant
Frame rate : 23.976 (24000/1001) FPS
Color space : YUV
Chroma subsampling : 4:2:0
Bit depth : 8 bits
Scan type : Progressive
Bits/(Pixel*Frame) : 0.241
Stream size : 11.1 GiB (84%)
Title : BDRip by Ash61 (v2)
Writing library : x264 core 146 r2538 121396c
Encoding settings : cabac=1 / ref=4 / deblock=1:-3:-3 / analyse=0x3:0x113 / me=umh / subme=10 / psy=1 / psy_rd=1.00:0.00 / mixed_ref=1 / me_range=32 / chroma_me=1 / trellis=2 / 8x8dct=1 / cqm=0 / deadzone=21,11 / fast_pskip=0 / chroma_qp_offset=-2 / threads=12 / lookahead_threads=2 / sliced_threads=0 / nr=0 / decimate=0 / interlaced=0 / bluray_compat=0 / constrained_intra=0 / bframes=8 / b_pyramid=2 / b_adapt=2 / b_bias=0 / direct=3 / weightb=1 / open_gop=0 / weightp=2 / keyint=250 / keyint_min=23 / scenecut=40 / intra_refresh=0 / rc=2pass / mbtree=0 / bitrate=12000 / ratetol=1.0 / qcomp=0.70 / qpmin=0 / qpmax=69 / qpstep=4 / cplxblur=20.0 / qblur=0.5 / frame-packing=4 / ip_ratio=1.40 / pb_ratio=1.30 / aq=1:0.70
Language : English
Default : Yes
Forced : No

Audio #1
ID : 2
Format : AC-3
Format/Info : Audio Coding 3
Format settings, Endianness : Big
Codec ID : A_AC3
Duration : 2 h 15 min
Bit rate mode : Constant
Bit rate : 640 kb/s
Channel(s) : 6 channels
Channel positions : Front: L C R, Side: L R, LFE
Sampling rate : 48.0 kHz
Frame rate : 31.250 FPS (1536 SPF)
Bit depth : 16 bits
Compression mode : Lossy
Stream size : 622 MiB (5%)
Title : Дубляж - BD CEE
Language : Russian
Service kind : Complete Main
Default : Yes
Forced : No

Audio #2
ID : 3
Format : AC-3
Format/Info : Audio Coding 3
Format settings, Endianness : Big
Codec ID : A_AC3
Duration : 2 h 15 min
Bit rate mode : Constant
Bit rate : 640 kb/s
Channel(s) : 6 channels
Channel positions : Front: L C R, Side: L R, LFE
Sampling rate : 48.0 kHz
Frame rate : 31.250 FPS (1536 SPF)
Bit depth : 16 bits
Compression mode : Lossy
Stream size : 622 MiB (5%)
Title : Дубляж
Language : Ukrainian
Service kind : Complete Main
Default : No
Forced : No

Audio #3
ID : 4
Format : AC-3
Format/Info : Audio Coding 3
Format settings, Endianness : Big
Codec ID : A_AC3
Duration : 2 h 15 min
Bit rate mode : Constant
Bit rate : 640 kb/s
Channel(s) : 6 channels
Channel positions : Front: L C R, Side: L R, LFE
Sampling rate : 48.0 kHz
Frame rate : 31.250 FPS (1536 SPF)
Bit depth : 16 bits
Compression mode : Lossy
Stream size : 622 MiB (5%)
Title : Original
Language : English
Service kind : Complete Main
Default : No
Forced : No

Text #1
ID : 5
Format : UTF-8
Codec ID : S_TEXT/UTF8
Codec ID/Info : UTF-8 Plain Text
Title : Форсированные
Language : Russian
Default : Yes
Forced : No

Text #2
ID : 6
Format : UTF-8
Codec ID : S_TEXT/UTF8
Codec ID/Info : UTF-8 Plain Text
Title : Полные
Language : Russian
Default : No
Forced : No

Text #3
ID : 7
Format : UTF-8
Codec ID : S_TEXT/UTF8
Codec ID/Info : UTF-8 Plain Text
Title : Коментарии режиссёра Джеймса Ганна
Language : Russian
Default : No
Forced : No

Text #4
ID : 8
Format : UTF-8
Codec ID : S_TEXT/UTF8
Codec ID/Info : UTF-8 Plain Text
Title : Форсированные (перевод madagaskar1)
Language : Ukrainian
Default : No
Forced : No

Text #5
ID : 9
Format : UTF-8
Codec ID : S_TEXT/UTF8
Codec ID/Info : UTF-8 Plain Text
Title : Полные (перевод vovikmar)
Language : Ukrainian
Default : No
Forced : No

Text #6
ID : 10
Format : UTF-8
Codec ID : S_TEXT/UTF8
Codec ID/Info : UTF-8 Plain Text
Title : Full
Language : English
Default : No
Forced : No

Text #7
ID : 11
Format : UTF-8
Codec ID : S_TEXT/UTF8
Codec ID/Info : UTF-8 Plain Text
Title : SDH
Language : English
Default : No
Forced : No

Menu
00:00:00.000 : : 1. Королевская кобра и гигантская морская обезьяна / King Cobra & Giant Sea Monkey
00:09:56.177 : : 2. Золотые болваны / Golden Morons
00:15:10.116 : : 3. Космическая погоня / Space Chase
00:22:14.082 : : 4. Точно не из Миссури / Not From Missouri
00:32:33.701 : : 5. Самые страшные тайны / Deepest, Darkest, Secrets
00:36:52.126 : : 6. Засада на Берхарте / Berhert Ambush
00:42:29.170 : : 7. Поиски смысла / Finding Meaning
00:48:03.463 : : 8. Шокерфейс / Taserface
00:53:18.903 : : 9. Целестиалы играют в мяч / Celestial Catch
00:58:45.938 : : 10. Уговор / Let's Agree To Never Discuss This
01:05:52.239 : : 11. Побег / Eclector Escape
01:11:12.434 : : 12. Сёстры / Sibling Rivalry
01:18:43.592 : : 13. Вечность / Eternity
01:23:55.320 : : 14. Нас двое / Two Of A Kind
01:30:24.752 : : 15. Раздутое эго / Inflated Ego
01:39:36.177 : : 16. Ну и денёк / What A Day
01:47:06.211 : : 17. От всего сердца / From The Heart
01:54:21.604 : : 18. Жертва отца / A Father's Sacrifice
01:58:53.708 : : 19. Цвета Огорда / The Colors Of Ogord
02:07:13.458 : : 20. Финальные титры / End Credits

pb.wtf



Скачать Стражи Галактики. Часть 2 3Д через торрент http://i93.fastpic.ru/big/2017/0823/b8/4fcc6180a44a51168323d0c71e7a89b8.png Скачать фильм Стражи Галактики. Часть 2 3Д через торрент бесплантно в хорошем качестве Описание: Все в сборе: землянин Питер Квилл (Звездный Лорд), молчаливый громила Дракс, зеленокожая наемница Гамора, живое дерево Грут и ... 10 10 3
Торрент: Зарегистрирован [2019-07-31 19:47] · скачан: 39 раз
Статус: √ проверено
Размер: 13.2 GB
Как cкачать? Как скачать Стражи Галактики. Часть 2 3Д через торрент | qTorrent

% Раздел Тема Автор DL S | L
3D Фильмы [ 13.04 GB ] Стражи Галактики. Часть 2 в 3Д / Guardians of the Galaxy Vol. 2 3D [2017 BDrip 1080p] OverUnder / Вертикальная стереопара serega768 Скачать
1 | 0

28-11-2019 20:33  

Отключить всю рекламу на сайте

    Дорогой пользователь! Огромная просьба, поблагодарите релизера, оцените раздачу и оставьте свои комментарий, если Вы скачали Стражи Галактики. Часть 2 3Д через торрент бесплатно! Внесите свою лепту в развитие PiratBit!
    Комментировать посты могут только пользователи прошедшие не сложную регистрацию
    Показать сообщения:    

    Стражи Галактики. Часть 2 3Д через торрент
    Скачать бесплатно Стражи Галактики. Часть 2 3Д
    Стражи Галактики. Часть 2 3Д скачать торрент
    Стражи Галактики. Часть 2 3Д смотреть онлайн
    Cкачать фильм Стражи Галактики. Часть 2 3Д бесплатно
    Стражи Галактики. Часть 2 3Д скачать торрент в хорошем качестве
    Стражи Галактики. Часть 2 3Д смотреть онлайн бесплатно в хорошем качестве


    Вы не можете начинать темы
    Вы не можете отвечать на сообщения
    Вы не можете редактировать свои сообщения
    Вы не можете удалять свои сообщения
    Вы не можете голосовать в опросах
    Вы не можете прикреплять файлы к сообщениям
    Вы можете скачивать файлы