Ссылка на приватное зеркало всего за 1$. Внимание количество ограничено!!!

iTunes

iTunes

iTunes

1

iTunes

iTunes

iTunes

WEBRip

iTunes

30
pack

$ от Little Big

ВАЖНО

!!Акция!!

Alien_RageХит недели

RePack

Resident Evil 21

ИГРА 18+

pack

RePack

jed

!!Акция!!

Alien_Rage

RePack

fifa19

RePack

Assassins Creed: Odyssey

RePack

NEED FOR SPEED™ PAYBACK

4 сезон

9 сезон

Бесстыжие 9 сезон

Все сериалы

все сериалы на PB.wtf

RePack

FAR CRY 5
  

Джетт / Jett / Сезон: 1 / Серии: 1-9 из 9 (Себастьян Гутьеррес / Sebastian Gutierrez) [2019, Драма, криминал, WEB-DLRip] [MVO] (NewStudio) pb.wtf

Джетт через торрент pb.wtf

Размер: 10.64 GB | Добавлен: 11 мес. назад | Торрент скачан:12 раз
Скачать  

31-07-2019 20:45 Джетт Скачать торрент  

Джетт | Jett
Год выпуска: 2019
Страна: США | Cinemax
Жанр: Драма, криминал
Продолжительность: ~ 01:04:00
Перевод: Профессиональный (многоголосый закадровый) | NewStudio
Режиссёр: Себастьян Гутьеррес / Sebastian Gutierrez
В ролях: Карла Гуджино, Джанкарло Эспозито, Елена Анайя, Майкл Аронов, Гайте Янсен, Кристофер Бакус, Джил Беллоуз, Вайолет МакГроу, Люси Уолтерс, Мустафа Жакир
Описание: Профессиональный вор Дэйзи Джетт Ковальски недавно вышла из тюрьмы. Ей снова придётся вернуться к опасному ремеслу, поскольку именно этого хотят грозные криминальные боссы.

rating
Качество: WEB-DLRip
Формат: AVI
Видео: XviD, 704x352 (2,000), 23.976 кадров/сек, ~2000 Кбит/сек
Аудио Rus: AC3, 48,0 kHz, 6 ch, 384 Кбит/сек | NewStudio
Аудио Eng: AC3, 48,0 kHz, 6 ch, 384 Кбит/сек
Субтитры: Русские (Forced |NewStudio|)
Реклама: Отсутствует
• Очистка от рекламы Wentworth_Miller

  • 01. Дейзи / Daisy
  • 02. Чарльз Младший / Charles Junior
  • 03. Феникс / Phoenix
  • 04. Фрэнк Суини / Frank Sweeney
  • 05. Бенни / Bennie
  • 06. Джози / Josie
  • 07. Розали / Rosalie

  • Общее
    Полное имя : E:\Jett (Season 1) WEB-DLRip 400p NewStudio\Jett.S01E01.WEB-DLRip.NewStudio.RGzsRutracker.[Wentworth_Miller].avi
    Формат : AVI
    Формат/Информация : Audio Video Interleave
    Размер файла : 1,31 Гбайт
    Продолжительность : 1 ч. 7 м.
    Общий поток : 2774 Кбит/сек
    Название фильма : Jett 01x01 (Daisy) - Release by Wentworth_Miller
    Программа кодирования : VirtualDubMod 1.5.10.3 | www.virtualdub-fr.org || (build 2550/release)

    Видео
    Идентификатор : 0
    Формат : MPEG-4 Visual
    Профиль формата : Advanced Simple@L5
    Настройки формата : BVOP1
    Параметр BVOP формата : 1
    Параметр QPel формата : Нет
    Параметр GMC формата : Без точки перехода
    Параметр матрицы формата : Default (MPEG)
    Идентификатор кодека : XVID
    Идентификатор кодека/Подсказка : XviD
    Продолжительность : 1 ч. 7 м.
    Битрейт : 1992 Кбит/сек
    Ширина : 704 пикселя
    Высота : 352 пикселя
    Соотношение сторон : 2,000
    Частота кадров : 23,976 (24000/1001) кадра/сек
    Цветовое пространство : YUV
    Субдискретизация насыщенности : 4:2:0
    Битовая глубина : 8 бит
    Тип развёртки : Прогрессивная
    Метод сжатия : С потерями
    Бит/(Пиксели*Кадры) : 0.335
    Размер потока : 965 Мбайт (72%)
    Библиотека кодирования : XviD 67

    Аудио #1
    Идентификатор : 1
    Формат : AC-3
    Формат/Информация : Audio Coding 3
    Коммерческое название : Dolby Digital
    Идентификатор кодека : 2000
    Продолжительность : 1 ч. 7 м.
    Вид битрейта : Постоянный
    Битрейт : 384 Кбит/сек
    Каналы : 6 каналов
    ChannelLayout : L R C LFE Ls Rs
    Частота : 48,0 КГц
    Частота кадров : 31,250 кадров/сек (1536 SPF)
    Битовая глубина : 16 бит
    Метод сжатия : С потерями
    Размер потока : 186 Мбайт (14%)
    Выравнивание : Разделение по промежуткам
    Продолжительность промежутка : 42 мс. (1,00 видеокадр)
    Время предзагрузки промежутка : 500 мс.
    ServiceKind/String : Complete Main

    Аудио #2
    Идентификатор : 2
    Формат : AC-3
    Формат/Информация : Audio Coding 3
    Коммерческое название : Dolby Digital
    Идентификатор кодека : 2000
    Продолжительность : 1 ч. 7 м.
    Вид битрейта : Постоянный
    Битрейт : 384 Кбит/сек
    Каналы : 6 каналов
    ChannelLayout : L R C LFE Ls Rs
    Частота : 48,0 КГц
    Частота кадров : 31,250 кадров/сек (1536 SPF)
    Битовая глубина : 16 бит
    Метод сжатия : С потерями
    Размер потока : 186 Мбайт (14%)
    Выравнивание : Разделение по промежуткам
    Продолжительность промежутка : 42 мс. (1,00 видеокадр)
    Время предзагрузки промежутка : 500 мс.
    ServiceKind/String : Complete Main

    скриншот  скриншот  скриншот  

    Внимание! Раздача ведётся путём добавления новых серий; при каждом добавлении создаётся новый торрент. Чтобы начать докачку новой серии, пользователям необходимо сделать следующее:
    (1) остановить скачивание,
    (2) удалить старый торрент у себя из клиента (старые серии удалять не надо),
    (3) скачать новый торрент и запустить его у себя в клиенте вместо старого, при этом указать клиенту путь в старую папку куда и должно происходить скачивание новых серий.

    Ваш клиент при этом должен произвести хеширование (проверку) старой папки (если не производит сам - помогите ему сделать это), и будет докачивать только те серии которых у вас ещё нет. Старые серии при этом не удаляются, а продолжают раздаваться!

    Eсли вы уже удалили старые серии, то предотвратить повторную закачку старых серий можно, отжав галочку в соответствующих местах при запуске нового торрента. По возможности, желательно не удалять старые серии как можно дольше чтобы релизёр не столько продолжал раздавать старые серии, а смог сконцентрироваться на новых.

    pb.wtf



    Скачать Джетт через торрент https://i110.fastpic.ru/big/2019/0618/2c/be37473ac5d3e1a1f8733364d1111f2c.jpg Скачать фильм Джетт через торрент бесплантно в хорошем качестве Описание: Профессиональный вор Дэйзи Джетт Ковальски недавно вышла из тюрьмы. Ей снова придётся вернуться к опасному ремеслу, поскольку ... 10 10 2
    Торрент: Зарегистрирован [2019-08-14 15:34] · скачан: 12 раз
    Статус: √ проверено
    Размер: 10.64 GB
    Как cкачать? Как скачать Джетт через торрент | qTorrent

    % Раздел Тема Автор DL S | L
    Зарубежные сериалы [ 29.64 GB ] Джетт / Jett / Сезон: 1 / Серии: 1-9 из 9 [2019 WEB-DL 1080p] MVO [Кириллица / Amedia] bober100 Скачать
    1 | 0
    Зарубежные сериалы [ 8.79 GB ] Джетт / Jett / Сезон: 1 / Серии: 1-9 из 9 [2019 WEBRip] [MVO] killermax2013 Скачать
    2 | 0
    Зарубежные сериалы [ 9.34 GB ] Джетт / Jett / Сезон: 1 / Серии: 1-9 из 9 [2019 WEB-DLRip] MVO [Кириллица] bober100 Скачать
    1 | 0
    Зарубежные сериалы [ 30.54 GB ] Джетт / Jett / Сезон: 1 / Серии: 1-9 из 9 [2019 WEBRip 1080p] [MVO] killermax2013 Скачать
    1 | 0

    28-11-2019 20:33  

    Отключить всю рекламу на сайте

      Дорогой пользователь! Огромная просьба, поблагодарите релизера, оцените раздачу и оставьте свои комментарий, если Вы скачали Джетт через торрент бесплатно! Внесите свою лепту в развитие PiratBit!
      Комментировать посты могут только пользователи прошедшие не сложную регистрацию
      Показать сообщения:    

      Джетт через торрент
      Скачать бесплатно Джетт
      Джетт скачать торрент
      Джетт смотреть онлайн
      Cкачать фильм Джетт бесплатно
      Джетт скачать торрент в хорошем качестве
      Джетт смотреть онлайн бесплатно в хорошем качестве


      Вы не можете начинать темы
      Вы не можете отвечать на сообщения
      Вы не можете редактировать свои сообщения
      Вы не можете удалять свои сообщения
      Вы не можете голосовать в опросах
      Вы не можете прикреплять файлы к сообщениям
      Вы можете скачивать файлы