Ссылка на приватное зеркало всего за 1$. Внимание количество ограничено!!!

OK

1+1

iTunes

мы

OK

1

WEB-DLRip

Джокер

Пифагор

Ведьмак / The Witcher сериал

iTunes

ПШазам

ОК

Оно 2

iTunes

30
pack

Вам бонус

ВАЖНО

!!Акция!!

Alien_RageХит недели

RePack

Resident Evil 21

ИГРА 18+

pack

RePack

jed

RePack

fifa19

RePack

Assassins Creed: Odyssey

RePack

NEED FOR SPEED™ PAYBACK

4 сезон

9 сезон

Бесстыжие 9 сезон

Все сериалы

все сериалы на PB.wtf

RePack

FAR CRY 5
  

Мстители: Финал / Avengers: Endgame (Энтони Руссо, Джо Руссо) [2019, фантастика, фэнтези, боевик, приключения, BDRip 720p] MVO [HDREzka Studio] - ExKinoRay pb.wtf

Мстители: Финал через торрент pb.wtf

Раздают: 53 [ 768 KB/s ] Качают: 3 [ 0 KB/s ]
Размер: 7.85 GB | Добавлен: 5 мес. 26 д. назад | Торрент скачан:345 раз
Скачать  

01-08-2019 00:58 Мстители: Финал Скачать торрент  

Информация о фильме
Название: Мстители: Финал
Оригинальное название: Avengers: Endgame
Год выхода: 2019
Жанр: Фантастика, фэнтези, боевик, приключения
Режиссер: Энтони Руссо, Джо Руссо
В ролях: Бри Ларсон, Линда Карделлини, Скарлетт Йоханссон, Карен Гиллан, Тесса Томпсон, Роберт Дауни мл., Крис Хемсворт, Крис Эванс, Эванджелин Лилли, Хейли Этвелл, Марк Руффало, Джереми Реннер, Дон Чидл, Пол Радд

Описание:
Оставшиеся в живых члены команды Мстителей и их союзники должны разработать новый план, который поможет противостоять разрушительным действиям могущественного титана Таноса. После наиболее масштабной и трагической битвы в истории они не могут допустить ошибку.

rating

Страна: США
Студия: Marvel Studios
Продолжительность: 03:01:11
Перевод: Профессиональный (многоголосый, закадровый) | HDRezka Studio
Субтитры: Русские (форсированные на надписи и японскую речь (Enigma), полные (ruf)), английские

БЕЗ КАКОЙ-ЛИБО РЕКЛАМЫ!

Формат: MKV
Качество: BDRip 720p
Видео: MPEG-4 AVC, 1280x536 (2.40:1), 23.976 fps, 5500 Kbps, 0.334 bit/pixel
Аудио 1: 48 kHz, AC3, 2.0, 256 Kbps | MVO | RUS |
Аудио 2: 48 kHz, AC3, 5.1, 448 Kbps | Оригинал | ENG |

Видеоряд от HDChina
General
Unique ID : 252388680064838511397704783642154861576 (0xBDE04AA9F9CB3E9391FE7DC807998408)
Complete name : C:\Avenger's.Endgame.2019.MVO.720p.BluRay.ExKinoRay.mkv
Format : Matroska
Format version : Version 2
File size : 7.85 GiB
Duration : 3 h 1 min
Overall bit rate : 6 185 kb/s
Movie name : Avenger's Endgame 2019 from ExKinoRay
Encoded date : UTC 2019-07-31 23:13:15
Writing application : mkvmerge v5.6.0 ('Kenya Kane') built on May 27 2012 16:44:04
Writing library : libebml v1.2.3 + libmatroska v1.3.0

Video
ID : 1
Format : AVC
Format/Info : Advanced Video Codec
Format profile : High@L4.1
Format settings, CABAC : Yes
Format settings, ReFrames : 12 frames
Codec ID : V_MPEG4/ISO/AVC
Duration : 3 h 1 min
Bit rate : 5 500 kb/s
Width : 1 280 pixels
Height : 536 pixels
Display aspect ratio : 2.40:1
Frame rate mode : Constant
Frame rate : 23.976 (24000/1001) FPS
Color space : YUV
Chroma subsampling : 4:2:0
Bit depth : 8 bits
Scan type : Progressive
Bits/(Pixel*Frame) : 0.334
Stream size : 6.80 GiB (87%)
Title : HDChina
Writing library : x264 core 148 r2665kMod a01e339
Encoding settings : cabac=1 / ref=12 / deblock=1:-3:-3 / analyse=0x3:0x133 / me=umh / subme=11 / psy=1 / fade_compensate=0.00 / psy_rd=1.05:0.00 / mixed_ref=1 / me_range=32 / chroma_me=1 / trellis=2 / 8x8dct=1 / cqm=0 / deadzone=21,11 / fast_pskip=0 / chroma_qp_offset=-2 / threads=17 / lookahead_threads=2 / sliced_threads=0 / nr=0 / decimate=0 / interlaced=0 / bluray_compat=0 / constrained_intra=0 / fgo=0 / bframes=8 / b_pyramid=2 / b_adapt=2 / b_bias=0 / direct=3 / weightb=1 / open_gop=0 / weightp=2 / keyint=240 / keyint_min=24 / scenecut=40 / intra_refresh=0 / rc=2pass / mbtree=0 / bitrate=5500 / ratetol=1.0 / qcomp=0.70 / qpmin=0 / qpmax=69 / qpstep=4 / cplxblur=20.0 / qblur=0.5 / ip_ratio=1.20 / pb_ratio=1.20 / aq=3:0.85
Default : Yes
Forced : No

Audio #1
ID : 2
Format : AC-3
Format/Info : Audio Coding 3
Mode extension : CM (complete main)
Format settings, Endianness : Big
Codec ID : A_AC3
Duration : 3 h 1 min
Bit rate mode : Constant
Bit rate : 256 kb/s
Channel(s) : 2 channels
Channel positions : Front: L R
Sampling rate : 48.0 kHz
Frame rate : 31.250 FPS (1536 spf)
Compression mode : Lossy
Stream size : 333 MiB (4%)
Title : MVO (HDRezka Sturio)
Language : Russian
Default : Yes
Forced : No

Audio #2
ID : 3
Format : AC-3
Format/Info : Audio Coding 3
Mode extension : CM (complete main)
Format settings, Endianness : Big
Codec ID : A_AC3
Duration : 3 h 1 min
Bit rate mode : Constant
Bit rate : 448 kb/s
Channel(s) : 6 channels
Channel positions : Front: L C R, Side: L R, LFE
Sampling rate : 48.0 kHz
Frame rate : 31.250 FPS (1536 spf)
Compression mode : Lossy
Stream size : 582 MiB (7%)
Language : English
Default : No
Forced : No

Text #1
ID : 4
Format : UTF-8
Codec ID : S_TEXT/UTF8
Codec ID/Info : UTF-8 Plain Text
Title : Forced (Enigma)
Language : Russian
Default : Yes
Forced : No

Text #2
ID : 5
Format : UTF-8
Codec ID : S_TEXT/UTF8
Codec ID/Info : UTF-8 Plain Text
Title : Full (Ruf)
Language : Russian
Default : No
Forced : No

Text #3
ID : 6
Format : UTF-8
Codec ID : S_TEXT/UTF8
Codec ID/Info : UTF-8 Plain Text
Title : Full
Language : English
Default : No
Forced : No

Text #4
ID : 7
Format : UTF-8
Codec ID : S_TEXT/UTF8
Codec ID/Info : UTF-8 Plain Text
Title : SDH
Language : English
Default : No
Forced : No

Text #5
ID : 8
Format : UTF-8
Codec ID : S_TEXT/UTF8
Codec ID/Info : UTF-8 Plain Text
Title : Colored
Language : English
Default : No
Forced : No

Menu
00:00:00.000 : en:One Last Surprise
00:08:05.902 : en:"To The Garden"
00:20:01.700 : en:Five Years Later
00:26:15.282 : en:"A Time Heist"
00:36:57.173 : en:"Time Travel Do-Over"
00:43:20.598 : en:"I Fiexed It"
00:48:44.171 : en:Assembling the Avengers
00:57:36.745 : en:"Get The Stones, Get Them Back"
01:07:12.612 : en:Rogue Transmission
01:16:02.516 : en:New York, 2012
01:26:25.430 : en:Asgard, 2013
01:32:20.118 : en:Morag, 2014
01:38:55.805 : en:New Jersey, 1970
01:48:12.361 : en:Vormir, 2014
01:57:26.915 : en:"I Was Made For This"
02:05:00.243 : en:Thanos' Return
02:15:06.432 : en:Avengers Assemble
02:25:50.450 : en:One of The 14,000,605
02:34:37.935 : en:"Part of The Journey Is The End"
02:43:03.899 : en:"Clip All the Branches"
02:49:05.344 : en:End Credits


Релиз от:

Автор релиза: pb.wtf



Скачать Мстители: Финал через торрент http://a.radikal.ru/a17/1907/80/3b37c6056cbb.jpg Скачать фильм Мстители: Финал через торрент бесплантно в хорошем качестве Описание:Оставшиеся в живых члены команды Мстителей и их союзники должны разработать новый план, который поможет противостоять ... 10 10 8
Info! Золотая раздача, скачанное не засчитывается.
Торрент: Зарегистрирован [2019-08-01 00:58] · скачан: 345 раз
Статус: T временная
Размер: 7.85 GB
Как cкачать? Как скачать Мстители: Финал через торрент | qTorrent

% Раздел Тема Автор DL S | L
T Фильмы 2019-2020 [DVDrip, WEB-DLRip, HDrip] (DUB, MVO) [ 2.18 GB ] Мстители: Финал / Avengers: Endgame [2019 HDRip] MVO [HDREzka Studio] - ExKinoRay Enigma2010 Скачать
16 | 0
T Фильмы (WEB-DL 720p, 1080p) [ 6.8 GB ] Мстители: Финал / Avengers: Endgame [2019 WEB-DL 1080p] MVO [HDREzka Studio] - ExKinoRay Enigma2010 Скачать
11 | 0

28-11-2019 20:33  

Отключить всю рекламу на сайте

    Дорогой пользователь! Огромная просьба, поблагодарите релизера, оцените раздачу и оставьте свои комментарий, если Вы скачали Мстители: Финал через торрент бесплатно! Внесите свою лепту в развитие PiratBit!
    Комментировать посты могут только пользователи прошедшие не сложную регистрацию
    Показать сообщения:    

    Мстители: Финал через торрент
    Скачать бесплатно Мстители: Финал
    Мстители: Финал скачать торрент
    Мстители: Финал смотреть онлайн
    Cкачать фильм Мстители: Финал бесплатно
    Мстители: Финал скачать торрент в хорошем качестве
    Мстители: Финал смотреть онлайн бесплатно в хорошем качестве


    Вы не можете начинать темы
    Вы не можете отвечать на сообщения
    Вы не можете редактировать свои сообщения
    Вы не можете удалять свои сообщения
    Вы не можете голосовать в опросах
    Вы не можете прикреплять файлы к сообщениям
    Вы можете скачивать файлы