2 сезон

iTunes

MVO

1

2 сезон

iTunes

iTunes

1 сезон

RePack

30

Новинка

ВАЖНО

ИГРА 18+

pack

RePack

MK11
pack

Легкие деньги

RePack

jed

RePack

fifa19

RePack

RDR2

RePack

NEED FOR SPEED™ PAYBACK

4 сезон

9 сезон

Бесстыжие 9 сезон

Все сериалы

все сериалы на PB.wtf

RePack

FAR CRY 5

Anonymous, добрый вечер, мы не успеваем собрать деньги на оплату серверов за декабрь и январь, помогите нам пожалуйста в это трудное время. В качестве благодарности мы отключим Вам всю рекламу на сайте (укажите свой ник в строку Ваше имя)!

×
  
Magnet ссылка

Бегущий по лезвию 2049 / Blade Runner 2049 (Дени Вильнёв) [2017, Драма, детектив, научная фантастика, UHD BDRip 2160p] [SDR] DUB (rus, ukr) + AVO [Д.Есарев] pb.wtf

Бегущий по лезвию 2049 через торрент pb.wtf

Раздают: 1 [ 0 KB/s ]
Размер: 27.51 GB | Добавлен: 1 год 5 мес. назад | Торрент скачан:91 раз
Скачать  

01-08-2019 04:37 Бегущий по лезвию 2049 Скачать торрент  

Бегущий по лезвию 2049 / Blade Runner 2049«The key to the future is finally unearthed»
Год выпуска: 2017
Страна: США, Великобритания, Канада
Жанр: Драма, детектив, научная фантастика, триллер
Продолжительность: 02:43:27
Перевод: Дублированный, авторский
Субтитры: Русские, английские, украинские
Режиссер: Дени Вильнёв
В ролях:

Райан Гослинг («K»), Харрисон Форд (Rick Deckard), Ана де Армас (Joi), Сильвия Хукс (Luv), Робин Райт (Lieutenant Joshi), Маккензи Дэвис (Mariette), Карла Юри (Dr. Ana Stelline), Ленни Джеймс (Mister Cotton), Дэйв Батиста (Sapper Morton), Джаред Лето (Niander Wallace), Давид Дастмалчян (Coco), Баркхад Абди (Doc Badger)
Описание:
В недалеком будущем мир населен людьми и репликантами, созданными выполнять самую тяжелую работу. Работа офицера полиции Кей — держать репликантов под контролем в условиях нарастающего напряжения… Пока он случайно не становится обладателем секретной информации, которая ставит под угрозу существование всего человечества. Желая найти ключ к разгадке, Кей решает разыскать Рика Декарда, бывшего офицера специального подразделения полиции Лос-Анджелеса, который бесследно исчез много лет назад...
Рейтинг:

Качество: UHD BDRip 2160p | SDR
Формат: MKV
Видео: MPEG-4 AVC, 22000 Кбит/с, 3840x1600, 23.976 кадр/с
Аудио 1: Русский / AC3 / 48 KHz / 5.1 ch / 640 Kbps (Дубляж - BD Eur)
Аудио 2: Русский / AC3 / 48 KHz / 5.1 ch / 640 Kbps (авторский - Д.Есарев)
Аудио 3: Украинский / AC3 / 48 KHz / 2 ch / 192 Kbps (Дубляж - iTunes)
Аудио 4: Английский / AC3 / 48 KHz / 5.1 ch / 640 Kbps (Original)
Навигация по главам: Есть

Общее
Уникальный идентификатор : 189635249508298701040764409334996861966 (0x8EAA6BA96C40C27CAD9ECC12493B040E)
Полное имя : H:\Blade Runner 2049 2017 2160p BluRay.SDR.8bit.UHD.4K.BDRip.x264.Master5.mkv
Формат : Matroska
Версия формата : Version 4 / Version 2
Размер файла : 27,5 Гбайт
Продолжительность : 2 ч. 43 м.
Общий поток : 24,0 Мбит/сек
Название фильма : Blade Runner 2049 2017 2160p BluRay.SDR.8bit.UHD.4K.BDRip.x264.Master5
Дата кодирования : UTC 2018-01-18 17:26:19
Программа кодирования : mkvmerge v8.1.0 ('Psychedelic Postcard') 32bit
Библиотека кодирования : libebml v1.3.1 + libmatroska v1.4.2
Обложка : Yes
Attachments : cover.jpg

Видео
Идентификатор : 1
Формат : AVC
Формат/Информация : Advanced Video Codec
Профиль формата : High@L5.1
Параметр CABAC формата : Да
Параметр ReFrames формата : 5 кадров
Идентификатор кодека : V_MPEG4/ISO/AVC
Продолжительность : 2 ч. 43 м.
Битрейт : 22,0 Мбит/сек
Ширина : 3840 пикселей
Высота : 1600 пикселей
Соотношение сторон : 2,40:1
Режим частоты кадров : Постоянный
Частота кадров : 23,976 (24000/1001) кадра/сек
Цветовое пространство : YUV
Субдискретизация насыщенности : 4:2:0
Битовая глубина : 8 бит
Тип развёртки : Прогрессивная
Бит/(Пиксели*Кадры) : 0.149
Размер потока : 25,1 Гбайт (91%)
Заголовок : Blade Runner 2049 2017 2160p BluRay.SDR.8bit.UHD.4K.BDRip.x264.Master5
Библиотека кодирования : x264 core 148 r2748 97eaef2
Настройки программы : cabac=1 / ref=5 / deblock=1:-1:-1 / analyse=0x3:0x113 / me=umh / subme=10 / psy=1 / psy_rd=1.00:0.15 / mixed_ref=1 / me_range=48 / chroma_me=1 / trellis=2 / 8x8dct=1 / cqm=0 / deadzone=21,11 / fast_pskip=1 / chroma_qp_offset=-3 / threads=50 / lookahead_threads=4 / sliced_threads=0 / nr=0 / decimate=0 / interlaced=0 / bluray_compat=0 / constrained_intra=0 / bframes=3 / b_pyramid=2 / b_adapt=2 / b_bias=0 / direct=3 / weightb=1 / open_gop=0 / weightp=2 / keyint=250 / keyint_min=23 / scenecut=40 / intra_refresh=0 / rc_lookahead=50 / rc=crf / mbtree=1 / crf=18.0 / qcomp=0.60 / qpmin=0 / qpmax=69 / qpstep=4 / ip_ratio=1.40 / aq=1:1.00
Default : Да
Forced : Нет

Аудио #1
Идентификатор : 2
Формат : AC-3
Формат/Информация : Audio Coding 3
Расширение режима : CM (complete main)
Параметр Endianness формата : Big
Идентификатор кодека : A_AC3
Продолжительность : 2 ч. 43 м.
Вид битрейта : Постоянный
Битрейт : 640 Кбит/сек
Каналы : 6 каналов
Расположение каналов : Front: L C R, Side: L R, LFE
Частота : 48,0 КГц
Частота кадров : 31,250 кадров/сек (1536 spf)
Метод сжатия : С потерями
Размер потока : 748 Мбайт (3%)
Заголовок : Дубляж - BD Eur
Язык : Russian
Default : Да
Forced : Нет

Аудио #2
Идентификатор : 3
Формат : AC-3
Формат/Информация : Audio Coding 3
Расширение режима : CM (complete main)
Параметр Endianness формата : Big
Идентификатор кодека : A_AC3
Продолжительность : 2 ч. 43 м.
Вид битрейта : Постоянный
Битрейт : 640 Кбит/сек
Каналы : 6 каналов
Расположение каналов : Front: L C R, Side: L R, LFE
Частота : 48,0 КГц
Частота кадров : 31,250 кадров/сек (1536 spf)
Метод сжатия : С потерями
Размер потока : 750 Мбайт (3%)
Заголовок : Esarev
Язык : Russian
Default : Нет
Forced : Нет

Аудио #3
Идентификатор : 4
Формат : AC-3
Формат/Информация : Audio Coding 3
Расширение режима : CM (complete main)
Параметр Endianness формата : Big
Идентификатор кодека : A_AC3
Продолжительность : 2 ч. 43 м.
Вид битрейта : Постоянный
Битрейт : 192 Кбит/сек
Каналы : 2 канала
Расположение каналов : Front: L R
Частота : 48,0 КГц
Частота кадров : 31,250 кадров/сек (1536 spf)
Метод сжатия : С потерями
Размер потока : 224 Мбайт (1%)
Заголовок : Дубляж - iTunes
Язык : Ukrainian
Default : Нет
Forced : Нет

Аудио #4
Идентификатор : 5
Формат : AC-3
Формат/Информация : Audio Coding 3
Расширение режима : CM (complete main)
Параметр Endianness формата : Big
Идентификатор кодека : A_AC3
Продолжительность : 2 ч. 43 м.
Вид битрейта : Постоянный
Битрейт : 640 Кбит/сек
Каналы : 6 каналов
Расположение каналов : Front: L C R, Side: L R, LFE
Частота : 48,0 КГц
Частота кадров : 31,250 кадров/сек (1536 spf)
Метод сжатия : С потерями
Размер потока : 748 Мбайт (3%)
Заголовок : Original
Язык : Finnish
Default : Нет
Forced : Нет

Текст #1
Идентификатор : 6
Формат : UTF-8
Идентификатор кодека : S_TEXT/UTF8
Идентификатор кодека/Информация : UTF-8 Plain Text
Продолжительность : 2 ч. 42 м.
Битрейт : 3 бит/сек
Count of elements : 81
Размер потока : 4,08 Кбайт (0%)
Заголовок : Форсированные [расширенные]
Язык : Russian
Default : Да
Forced : Нет

Текст #2
Идентификатор : 7
Формат : UTF-8
Идентификатор кодека : S_TEXT/UTF8
Идентификатор кодека/Информация : UTF-8 Plain Text
Продолжительность : 2 ч. 42 м.
Битрейт : 39 бит/сек
Count of elements : 1071
Размер потока : 47,5 Кбайт (0%)
Заголовок : Полные
Язык : Russian
Default : Нет
Forced : Нет

Текст #3
Идентификатор : 8
Формат : UTF-8
Идентификатор кодека : S_TEXT/UTF8
Идентификатор кодека/Информация : UTF-8 Plain Text
Продолжительность : 2 ч. 40 м.
Битрейт : 1 бит/сек
Count of elements : 44
Размер потока : 1,90 Кбайт (0%)
Заголовок : Форсированные [расширенные]
Язык : Ukrainian
Default : Нет
Forced : Нет

Текст #4
Идентификатор : 9
Формат : UTF-8
Идентификатор кодека : S_TEXT/UTF8
Идентификатор кодека/Информация : UTF-8 Plain Text
Продолжительность : 2 ч. 42 м.
Битрейт : 39 бит/сек
Count of elements : 1052
Размер потока : 46,6 Кбайт (0%)
Заголовок : Полные
Язык : Ukrainian
Default : Нет
Forced : Нет

Текст #5
Идентификатор : 10
Формат : UTF-8
Идентификатор кодека : S_TEXT/UTF8
Идентификатор кодека/Информация : UTF-8 Plain Text
Продолжительность : 2 ч. 26 м.
Битрейт : 24 бит/сек
Count of elements : 974
Размер потока : 26,6 Кбайт (0%)
Заголовок : Full
Язык : English
Default : Нет
Forced : Нет

Меню
00:00:00.000 : en:Chapter 1
00:12:36.172 : en:Chapter 2
00:23:29.282 : en:Chapter 3
00:37:00.885 : en:Chapter 4
00:42:50.317 : en:Chapter 5
00:49:24.503 : en:Chapter 6
00:58:35.553 : en:Chapter 7
01:04:10.680 : en:Chapter 8
01:15:47.292 : en:Chapter 9
01:25:12.482 : en:Chapter 10
01:36:15.060 : en:Chapter 11
01:50:55.106 : en:Chapter 12
02:01:36.872 : en:Chapter 13
02:08:40.379 : en:Chapter 14
02:16:42.485 : en:Chapter 15
02:27:46.732 : en:Chapter 16
pb.wtf



Скачать Бегущий по лезвию 2049 через торрент https://d.radikal.ru/d15/1908/56/f5705007cd31.png Скачать фильм Бегущий по лезвию 2049 через торрент бесплантно в хорошем качестве Описание: В недалеком будущем мир населен людьми и репликантами, созданными выполнять самую тяжелую работу. Работа офицера полиции Кей — ... 10 10 4
Торрент: Зарегистрирован [2019-08-01 04:37] · скачан: 91 раз
Статус: √ проверено
Размер: 27.51 GB
Как cкачать? Как скачать Бегущий по лезвию 2049 через торрент | UTorrent

% Раздел Тема Автор DL S | L
Ultra HD (UHD: 2K, 4K, 8K) — видео сверхвысокой чёткости [ 76.33 GB ] Бегущий по лезвию 2049 / Blade Runner 2049 [2017 научная UHD BDRemux 2160p] DUB [] + 5xAVO + VO sheker187 Скачать
1 | 0
Фильмы с авторской озвучкой [ 3.61 GB ] Бегущий по лезвию 2049 / Ликвидатор 2049 / Blade Runner 2049 [2017 BDRip] 4x[AVO] killermax2013 Скачать
1 | 0
Ultra HD (UHD: 2K, 4K, 8K) — видео сверхвысокой чёткости [ 81.15 GB ] Бегущий по лезвию 2049 / Blade Runner 2049 [2017 UHD BDRemux 2160p] 2xAVO [Д.Есарев Ю.Живов] +DUB +DUB [] bober100 Скачать
3 | 0

28-11-2019 20:33  

Отключить всю рекламу на сайте

    Дорогой пользователь! Огромная просьба, поблагодарите релизера, оцените раздачу и оставьте свои комментарий, если Вы скачали Бегущий по лезвию 2049 через торрент бесплатно! Внесите свою лепту в развитие PiratBit!
    Комментировать посты могут только пользователи прошедшие не сложную регистрацию
    Показать сообщения:    

    Бегущий по лезвию 2049 через торрент
    Скачать бесплатно Бегущий по лезвию 2049
    Бегущий по лезвию 2049 скачать торрент
    Бегущий по лезвию 2049 смотреть онлайн
    Cкачать фильм Бегущий по лезвию 2049 бесплатно
    Бегущий по лезвию 2049 скачать торрент в хорошем качестве
    Бегущий по лезвию 2049 смотреть онлайн бесплатно в хорошем качестве


    Вы не можете начинать темы
    Вы не можете отвечать на сообщения
    Вы не можете редактировать свои сообщения
    Вы не можете удалять свои сообщения
    Вы не можете голосовать в опросах
    Вы не можете прикреплять файлы к сообщениям
    Вы можете скачивать файлы