Ссылка на приватное зеркало нашего сайта всего за 1$. Внимание количество ограничено!!!

2 сезон

iTunes

1 сезон

1

2 сезон

2 сезон

iTunes

1 сезон

RePack

30

Ultimate

ВАЖНО

ИГРА 18+

pack

RePack

MK11
pack

Забери бонус

RePack

jed

!!Акция!!

Alien_Rage

RePack

fifa19

RePack

Assassins Creed: Odyssey

RePack

NEED FOR SPEED™ PAYBACK

4 сезон

9 сезон

Бесстыжие 9 сезон

Все сериалы

все сериалы на PB.wtf

RePack

FAR CRY 5
  

Ковбой призрачного короба / Ghostbox Cowboy (Джон Марингин) [2018, боевик, триллер, драма, комедия, криминал, приключения, WEB-DL 1080p] MVO [HDRezka Studio] pb.wtf

Ковбой призрачного короба через торрент pb.wtf

Размер: 4.47 GB | Добавлен: 1 год 3 мес. назад | Торрент скачан:18 раз
Скачать  

01-08-2019 05:09 Ковбой призрачного короба Скачать торрент  

Ковбой призрачного короба / Ghostbox Cowboy
Год выпуска: 2018
Страна: Китай США
Жанр: боевик, триллер, драма, комедия, криминал, приключения
Продолжительность: 01:51:39
Перевод: Профессиональный (многоголосый) | HDRezka Studio
Субтитры: русские (forced), английские (full)

Режиссер: Джон Марингин

rating


В ролях: Дэвид Зеллнер, Specialist, Роберт Лонгстрит, Винсент Се, J.R. Казет, Кэрри Джедже Чжан, Стив Масселмен, Такс Нинзя, Анжелина Лю

Описание: Глуповатый предприниматель из Техаса превращается в ковбоя с дикого запада китайских технологий, но оказывается во власти коррумпированных американских эмигрантов, которые пытаются вернуть его в родную страну...

Качество: WEB-DL 1080p
Формат: MKV

Видео: 1920x1080 (16:9), 23.976 fps, MPEG-4 AVC ~5 173 kbps avg
Аудио#1: 48.0 kHz, Advanced Audio Codec LC, 2/0 (L,R) ch, ~169 kbps | RUS / MVO
Аудио#2: 48.0 kHz, AC3 Dolby Digital, 3/2 (L,C,R,l,r) + LFE ch, ~384 kbps | ENG
скриншот  скриншот  скриншот  

General
Unique ID : 208552623968364039508989015434034937833 (0x9CE5C63BADAC9B8924BA85C117D7FFE9)
Complete name : Ghostbox.Cowboy.2018.WEB-DL.1080p.mkv
Format : Matroska
Format version : Version 4 / Version 2
File size : 4.47 GiB
Duration : 1 h 51 min
Overall bit rate : 5 729 kb/s
Encoded date : UTC 2019-07-31 13:16:53
Writing application : mkvmerge v20.0.0 ('I Am The Sun') 64-bit
Writing library : libebml v1.3.5 + libmatroska v1.4.8

Video
ID : 1
Format : AVC
Format/Info : Advanced Video Codec
Format profile : High@L4
Format settings : CABAC / 4 Ref Frames
Format settings, CABAC : Yes
Format settings, RefFrames : 4 frames
Codec ID : V_MPEG4/ISO/AVC
Duration : 1 h 51 min
Bit rate : 5 173 kb/s
Width : 1 920 pixels
Height : 1 080 pixels
Display aspect ratio : 16:9
Frame rate mode : Constant
Frame rate : 23.976 FPS
Color space : YUV
Chroma subsampling : 4:2:0
Bit depth : 8 bits
Scan type : Progressive
Bits/(Pixel*Frame) : 0.104
Stream size : 4.03 GiB (90%)
Language : English
Default : Yes
Forced : No
Color range : Limited
Color primaries : BT.709
Transfer characteristics : BT.709
Matrix coefficients : BT.709

Audio #1
ID : 2
Format : AAC
Format/Info : Advanced Audio Codec
Format profile : LC
Codec ID : A_AAC-2
Duration : 1 h 51 min
Bit rate : 169 kb/s
Channel(s) : 2 channels
Channel positions : Front: L R
Sampling rate : 48.0 kHz
Frame rate : 46.875 FPS (1024 SPF)
Compression mode : Lossy
Stream size : 135 MiB (3%)
Title : MVO HDRezka Studio
Language : Russian
Default : Yes
Forced : No

Audio #2
ID : 3
Format : AC-3
Format/Info : Audio Coding 3
Codec ID : A_AC3
Duration : 1 h 51 min
Bit rate mode : Constant
Bit rate : 384 kb/s
Channel(s) : 6 channels
Channel positions : Front: L C R, Side: L R, LFE
Sampling rate : 48.0 kHz
Frame rate : 31.250 FPS (1536 SPF)
Bit depth : 16 bits
Compression mode : Lossy
Stream size : 307 MiB (7%)
Language : English
Service kind : Complete Main
Default : No
Forced : No

Text #1
ID : 4
Format : UTF-8
Codec ID : S_TEXT/UTF8
Codec ID/Info : UTF-8 Plain Text
Duration : 1 h 40 min
Bit rate : 4 b/s
Count of elements : 39
Stream size : 3.29 KiB (0%)
Title : forced
Language : Russian
Default : Yes
Forced : Yes

Text #2
ID : 5
Format : UTF-8
Codec ID : S_TEXT/UTF8
Codec ID/Info : UTF-8 Plain Text
Duration : 1 h 46 min
Bit rate : 46 b/s
Count of elements : 1169
Stream size : 36.1 KiB (0%)
Language : English
Default : No
Forced : No

Menu
00:00:00.000 : en:1
00:10:37.512 : en:2
00:22:49.159 : en:3
00:34:22.809 : en:4
00:44:46.515 : en:5
00:55:10.388 : en:6
01:06:43.621 : en:7
01:16:42.678 : en:8
01:28:28.800 : en:9
01:40:55.629 : en:10
01:47:04.747 : en:11

pb.wtf



Скачать Ковбой призрачного короба через торрент http://c.radikal.ru/c24/1908/3a/4a41d7311a39.jpg Скачать фильм Ковбой призрачного короба через торрент бесплантно в хорошем качестве Описание: Глуповатый предприниматель из Техаса превращается в ковбоя с дикого запада китайских технологий, но оказывается во власти ... 10 10 4
Торрент: Зарегистрирован [2019-08-01 05:09] · скачан: 18 раз
Статус: T временная
Размер: 4.47 GB
Как cкачать? Как скачать Ковбой призрачного короба через торрент | qTorrent

28-11-2019 20:33  

Отключить всю рекламу на сайте

    Дорогой пользователь! Огромная просьба, поблагодарите релизера, оцените раздачу и оставьте свои комментарий, если Вы скачали Ковбой призрачного короба через торрент бесплатно! Внесите свою лепту в развитие PiratBit!
    Комментировать посты могут только пользователи прошедшие не сложную регистрацию
    Показать сообщения:    

    Ковбой призрачного короба через торрент
    Скачать бесплатно Ковбой призрачного короба
    Ковбой призрачного короба скачать торрент
    Ковбой призрачного короба смотреть онлайн
    Cкачать фильм Ковбой призрачного короба бесплатно
    Ковбой призрачного короба скачать торрент в хорошем качестве
    Ковбой призрачного короба смотреть онлайн бесплатно в хорошем качестве


    Вы не можете начинать темы
    Вы не можете отвечать на сообщения
    Вы не можете редактировать свои сообщения
    Вы не можете удалять свои сообщения
    Вы не можете голосовать в опросах
    Вы не можете прикреплять файлы к сообщениям
    Вы можете скачивать файлы