Ссылка на приватное зеркало нашего сайта всего за 1$. Внимание количество ограничено!!!

2 сезон

iTunes

1 сезон

1

2 сезон

2 сезон

iTunes

1 сезон

RePack

30

Ultimate

ВАЖНО

ИГРА 18+

pack

RePack

MK11
pack

Забери бонус

RePack

jed

!!Акция!!

Alien_Rage

RePack

fifa19

RePack

Assassins Creed: Odyssey

RePack

NEED FOR SPEED™ PAYBACK

4 сезон

9 сезон

Бесстыжие 9 сезон

Все сериалы

все сериалы на PB.wtf

RePack

FAR CRY 5
  

Некромант / Nekrotronic (Кия Роуч-Тернер) [2018, ужасы, фантастика, комедия, WEB-DL 720p] DUB [iTunes] pb.wtf

Некромант через торрент pb.wtf

Размер: 2.85 GB | Добавлен: 1 год 3 мес. назад | Торрент скачан:93 раза
Скачать  

01-08-2019 06:19 Некромант Скачать торрент  

Некромант / Nekrotronic
Год выпуска: 2018
Страна: Австралия
Жанр: ужасы, фантастика, комедия
Продолжительность: 01:32:45
Перевод: Дублированный | iTunes
Субтитры: отсутствуют

Режиссер: Кия Роуч-Тернер

rating

В ролях: Бен О Тул, Моника Беллуччи, Боб Савеа, Дэвид Бимиш, Чармэйн Бингва, Уилльям Чун, Майкл Дункан, Кэролайн Форд, Аллира Гибсон, Роберт Грин

Описание: Однажды, зависнув в сети, обычный парень осознает, что он - член таинственной организации некромантов, один из охотников на демонов, овладевающих душами людей через смартфоны.

Качество: WEB-DL 720p
Формат: MKV

Видео: MPEG-4 AVC, 3932 Кбит/с, 1280@960x536
Аудио: Русский, (AC3, 6 ch, 384 Кбит/с)
скриншот  скриншот  скриншот  

Общее
Уникальный идентификатор : 237835445248470160398629117645799148718 (0xB2ED70CA1E1B9F64AEBBF5095F41CCAE)
Полное имя : D:\Nekrotronic.2019.WEB-DL.720p.ELEKTRI4KA.UNIONGANG.mkv
Формат : Matroska
Версия формата : Version 2
Размер файла : 2,85 Гбайт
Продолжительность : 1 ч. 32 м.
Общий поток : 4403 Кбит/сек
Название фильма : Nekrotronic.2019.ELEKTRI4KA.UNIONGANG
Дата кодирования : UTC 2019-08-10 18:16:24
Программа кодирования : mkvmerge v7.8.0 ('River Man') 32bit built on Apr 3 2015 12:11:22
Библиотека кодирования : libebml v1.3.1 + libmatroska v1.4.2

Видео
Идентификатор : 2
Формат : AVC
Формат/Информация : Advanced Video Codec
Профиль формата : Main@L3.1
Параметр CABAC формата : Нет
Параметр RefFrames формата : 2 кадра
Идентификатор кодека : V_MPEG4/ISO/AVC
Продолжительность : 1 ч. 32 м.
Битрейт : 3932 Кбит/сек
Ширина : 960 пикселей
Высота : 536 пикселей
Соотношение сторон : 2,40:1
Режим частоты кадров : Постоянный
Частота кадров : 25,000 кадров/сек
Цветовое пространство : YUV
Субдискретизация насыщенности : 4:2:0
Битовая глубина : 8 бит
Тип развёртки : Прогрессивная
Бит/(Пиксели*Кадры) : 0.306
Размер потока : 2,55 Гбайт (89%)
Язык : English
Default : Да
Forced : Нет
Цветовой диапазон : Limited
Основные цвета : BT.709
Характеристики трансфера : BT.709
Коэффициенты матрицы : BT.709

Аудио
Идентификатор : 1
Формат : AC-3
Формат/Информация : Audio Coding 3
Расширение режима : CM (complete main)
Параметр Endianness формата : Big
Идентификатор кодека : A_AC3
Продолжительность : 1 ч. 32 м.
Вид битрейта : Постоянный
Битрейт : 384 Кбит/сек
Каналы : 6 каналов
Расположение каналов : Front: L C R, Side: L R, LFE
Частота : 48,0 КГц
Частота кадров : 31,250 кадров/сек (1536 spf)
Метод сжатия : С потерями
Размер потока : 255 Мбайт (9%)
Язык : Russian
Default : Да
Forced : Нет

Меню
00:00:00.000 : en:Глава 1
00:09:28.320 : en:Глава 2
00:18:15.440 : en:Глава 3
00:26:35.640 : en:Глава 4
00:34:50.840 : en:Глава 5
00:43:48.919 : en:Глава 6
00:52:09.998 : en:Глава 7
01:00:36.718 : en:Глава 8
01:08:37.198 : en:Глава 9
01:17:18.236 : en:Глава 10
01:25:44.076 : en:Глава 11

pb.wtf



Скачать Некромант через торрент https://img15.lostpic.net/2019/08/11/899c228d64c3530d27d48085188118ba.jpg Скачать фильм Некромант через торрент бесплантно в хорошем качестве Описание: Однажды, зависнув в сети, обычный парень осознает, что он - член таинственной организации некромантов, один из охотников на ... 7.8 10 4
Торрент: Зарегистрирован [2019-08-10 19:34] · скачан: 93 раз
Статус: √ проверено
Размер: 2.85 GB
Как cкачать? Как скачать Некромант через торрент | qTorrent

% Раздел Тема Автор DL S | L
Фильмы 2018 [DVDrip, WEB-DLRip, HDrip] (DUB, MVO) [ 1.42 GB ] Некромант / Nekrotronic [2018 BDRip] bober100 Скачать
1 | 0
Фильмы [HD 720p, 1080p] (Хороший звук DUB, MVO) [ 4.28 GB ] Некромант / Nekrotronic [2018 BDRip 720p] bober100 Скачать
1 | 0
Фильмы 2018 [DVDrip, WEB-DLRip, HDrip] (DUB, MVO) [ 1.42 GB ] Некромант / Nekrotronic [2018 BDRip] - Twi7ter Скачать
22 | 2
Фильмы [HD 720p, 1080p] (Хороший звук DUB, MVO) [ 8.25 GB ] Некромант / Nekrotronic [2018 BDRip 1080p] bober100 Скачать
3 | 0
Фильмы (Blu-ray, BD-Remux, HDDVD) [ 21.93 GB ] Некромант / Nekrotronic [2018 BD Remux 1080p] bober100 Скачать
1 | 0
Фильмы 2018 [DVDrip, WEB-DLRip, HDrip] (DUB, MVO) [ 744 MB ] Некромант / Nekrotronic [2018 WEB-DLRip] bober100 Скачать
1 | 0
Фильмы (WEB-DL 720p, 1080p) [ 6.85 GB ] Некромант / Nekrotronic [2018 WEB-DL 1080p] bober100 Скачать
1 | 0


Последний раз редактировалось: bober100 (2019-08-11 03:29), всего редактировалось 2 раз(а)

28-11-2019 20:33  

Отключить всю рекламу на сайте

01-08-2019 12:34 Некромант Скачать торрент  

Начало падения Моники... Ультра-трэш с известной в прошлом актрисой, которой стали нужны деньги. От рейтинга тройку отнимайте за нее, останется реальный рейтинг фильма.pb.wtf



11-08-2019 09:05 Некромант Скачать торрент  

какое редкосное го...!давно так не ржал,советую всем посмотреть)))pb.wtf



    Дорогой пользователь! Огромная просьба, поблагодарите релизера, оцените раздачу и оставьте свои комментарий, если Вы скачали Некромант через торрент бесплатно! Внесите свою лепту в развитие PiratBit!
    Комментировать посты могут только пользователи прошедшие не сложную регистрацию
    Показать сообщения:    

    Некромант через торрент
    Скачать бесплатно Некромант
    Некромант скачать торрент
    Некромант смотреть онлайн
    Cкачать фильм Некромант бесплатно
    Некромант скачать торрент в хорошем качестве
    Некромант смотреть онлайн бесплатно в хорошем качестве


    Вы не можете начинать темы
    Вы не можете отвечать на сообщения
    Вы не можете редактировать свои сообщения
    Вы не можете удалять свои сообщения
    Вы не можете голосовать в опросах
    Вы не можете прикреплять файлы к сообщениям
    Вы можете скачивать файлы