новый адрес
Ссылка на приватное зеркало всего за 1$. Внимание количество ограничено!!!

iTunes

1+1

iTunes

мы

iTunes

1

iTunes

Чернобыль

iTunes

Ральф против интернета

Лицензия

ПШазам

Лицензия

Оно 2

Лицензия

30
pack

Вам бонус

ВАЖНО

!!Акция!!

Alien_RageХит недели

RePack

Resident Evil 21

ИГРА 18+

pack

RePack

jed

!!Акция!!

Alien_Rage

RePack

fifa19

RePack

Assassins Creed: Odyssey

RePack

NEED FOR SPEED™ PAYBACK

3 сезон

9 сезон

Бесстыжие 9 сезон

Все сериалы

все сериалы на PB.wtf

RePack

FAR CRY 5
Ребята, катастрофически не хватает 1900р. для оплаты серверов за Октябрь (всвязи с блокировками трафик упал в 3 раза), 1-2р., выручайте.
  

Репост / Share (Пиппа Бьянко / Pippa Bianco) [2019, триллер, WEB-DLRip-AVC] MVO [Amedia] pb.wtf

Репост через торрент pb.wtf

Раздают: 8 [ 122 KB/s ] Качают: 1 [ 0 KB/s ]
Размер: 1.48 GB | Добавлен: 4 мес. 5 д. назад | Торрент скачан:84 раза
Скачать  

01-08-2019 08:45 Репост Скачать торрент  

Репост
Share

Страна: США
Жанр: триллер
Год выпуска: 2019
Продолжительность: 01:28:08

Перевод: Профессиональный (многоголосый, закадровый) [Amedia]
Субтитры: английские (полные, SDH)
Оригинальная аудиодорожка: английский

Режиссер: Пиппа Бьянко / Pippa Bianco

В ролях: Рианна Баррето, Чарли Пламмер, Пурна Джаганнатан, Дж.С. МакКензи, Николас Голицын, Lovie Simone, Дэнни Мастроджорджо, Кимми Чои, Дарлен Кук, Christian Corrao

Описание: 16-летняя Мэнди находит компрометирующее видео с ночи, которую не помнит. Теперь ей нужно попытаться выяснить, что произошло, и попытаться предотвратить крах собственной жизни.

rating

Релиз:

Автор рипа: stalkerok

Сэмпл

Качество видео: WEB-DLRip-AVC | Исходник: Share.2019.1080p.AMZN.WEB-DL.DDP5.1.H.264-NTG
Формат видео: MKV
Видео кодек: AVC
Аудио кодек: AC3
Видео: AVC, 1826 Кбит/сек, 1152x576 (2.000), 23,976 кадр/сек
Аудио №1: AC3, 192 Кбит/сек, 48 КГц, 2.0 - русский
Аудио №2: AC3, 384 Кбит/сек, 48 КГц, 5.1 - английский
---[Information] [01.08.2019 0:29:01] x264 [info]: frame I:795 Avg QP:13.02 size: 48261
---[Information] [01.08.2019 0:29:01] x264 [info]: frame P:26332 Avg QP:14.49 size: 20091
---[Information] [01.08.2019 0:29:01] x264 [info]: frame B:99669 Avg QP:16.77 size: 6422

General
Unique ID : 132879870976722676593979710302413178262 (0x63F7BB74DE9CBF59B81BBA0AFD44C596)
Complete name : C:\temp\Share\Share.2019.WEB-DLRip.x264.Rus.Eng.stalkerok.New-Team.mkv
Format : Matroska
Format version : Version 4 / Version 2
File size : 1.48 GiB
Duration : 1 h 28 min
Overall bit rate : 2 405 kb/s
Movie name : Share (2019) | Rip by stalkerok
Encoded date : UTC 2019-08-01 08:21:13
Writing application : mkvmerge v33.1.0 ('Primrose') 64-bit
Writing library : libebml v1.3.7 + libmatroska v1.5.0

Video
ID : 1
Format : AVC
Format/Info : Advanced Video Codec
Format profile : High@L4.1
Format settings, CABAC : Yes
Format settings, ReFrames : 12 frames
Codec ID : V_MPEG4/ISO/AVC
Duration : 1 h 28 min
Bit rate : 1 827 kb/s
Width : 1 152 pixels
Height : 576 pixels
Display aspect ratio : 2.000
Frame rate mode : Constant
Frame rate : 23.976 FPS
Color space : YUV
Chroma subsampling : 4:2:0
Bit depth : 8 bits
Scan type : Progressive
Bits/(Pixel*Frame) : 0.115
Stream size : 1.12 GiB (76%)
Title : Share (2019) | Rip by stalkerok
Writing library : x264 core 157 r2945 72db437
Encoding settings : cabac=1 / ref=12 / deblock=1:-3:-2 / analyse=0x3:0x133 / me=umh / subme=11 / psy=1 / psy_rd=1.00:0.00 / mixed_ref=1 / me_range=32 / chroma_me=1 / trellis=2 / 8x8dct=1 / cqm=0 / deadzone=21,11 / fast_pskip=0 / chroma_qp_offset=-2 / threads=12 / lookahead_threads=3 / sliced_threads=0 / nr=0 / decimate=1 / interlaced=0 / bluray_compat=0 / constrained_intra=0 / bframes=14 / b_pyramid=2 / b_adapt=2 / b_bias=0 / direct=3 / weightb=1 / open_gop=0 / weightp=2 / keyint=240 / keyint_min=23 / scenecut=40 / intra_refresh=0 / rc_lookahead=60 / rc=crf / mbtree=0 / crf=18.8 / qcomp=0.65 / qpmin=0 / qpmax=69 / qpstep=4 / vbv_maxrate=50000 / vbv_bufsize=62500 / crf_max=0.0 / nal_hrd=none / filler=0 / ip_ratio=1.40 / pb_ratio=1.30 / aq=3:0.80
Default : Yes
Forced : No

Audio #1
ID : 2
Format : AC-3
Format/Info : Audio Coding 3
Mode extension : CM (complete main)
Format settings, Endianness : Big
Codec ID : A_AC3
Duration : 1 h 28 min
Bit rate mode : Constant
Bit rate : 192 kb/s
Channel(s) : 2 channels
Channel positions : Front: L R
Sampling rate : 48.0 kHz
Frame rate : 31.250 FPS (1536 spf)
Compression mode : Lossy
Stream size : 121 MiB (8%)
Title : Amedia
Language : Russian
Default : Yes
Forced : No

Audio #2
ID : 3
Format : AC-3
Format/Info : Audio Coding 3
Mode extension : CM (complete main)
Format settings, Endianness : Big
Codec ID : A_AC3
Duration : 1 h 28 min
Bit rate mode : Constant
Bit rate : 384 kb/s
Channel(s) : 6 channels
Channel positions : Front: L C R, Side: L R, LFE
Sampling rate : 48.0 kHz
Frame rate : 31.250 FPS (1536 spf)
Compression mode : Lossy
Stream size : 242 MiB (16%)
Language : English
Default : No
Forced : No

Text #1
ID : 4
Format : UTF-8
Codec ID : S_TEXT/UTF8
Codec ID/Info : UTF-8 Plain Text
Duration : 1 h 24 min
Bit rate : 49 b/s
Count of elements : 1038
Stream size : 31.0 KiB (0%)
Language : English
Default : No
Forced : No

Text #2
ID : 5
Format : UTF-8
Codec ID : S_TEXT/UTF8
Codec ID/Info : UTF-8 Plain Text
Duration : 1 h 24 min
Bit rate : 49 b/s
Count of elements : 1038
Stream size : 31.0 KiB (0%)
Title : SDH
Language : English
Default : No
Forced : No
pb.wtf



Скачать Репост через торрент http://i6.imageban.ru/out/2017/09/18/2ff75c0c358795c5946784cc1680714d.png Скачать фильм Репост через торрент бесплантно в хорошем качестве Описание: 16-летняя Мэнди находит компрометирующее видео с ночи, которую не помнит. Теперь ей нужно попытаться выяснить, что произошло, и ... 10 10 5
Info! Золотая раздача, скачанное не засчитывается.
Торрент: Зарегистрирован [2019-08-01 08:45] · скачан: 84 раз
Статус: √ проверено
Размер: 1.48 GB
Как cкачать? Как скачать Репост через торрент | qTorrent

% Раздел Тема Автор DL S | L
Фильмы 2019 [DVDrip, WEB-DLRip, HDrip] (DUB, MVO) [ 1.46 GB ] Репост / Share [2019 WEB-DLRip] MVO [Амедиа] bober100 Скачать
1 | 0
Фильмы (WEB-DL 720p, 1080p) [ 6.48 GB ] Репост / Share [2019 WEB-DL 1080p] MVO [Amedia] sokol_ok Скачать
4 | 1
Аниме [HD 720p, 1080p] [ 7.77 GB ] Не обращенные из Стальной крепости / Koutetsujou no Kabaneri [2016 экшен HDTVRip 720p Любительский [Soer MezIdA [AniFilm]] DJASFUL Скачать
1 | 0

28-11-2019 20:33  

Отключить всю рекламу на сайте

    Дорогой пользователь! Огромная просьба, поблагодарите релизера, оцените раздачу и оставьте свои комментарий, если Вы скачали Репост через торрент бесплатно! Внесите свою лепту в развитие PiratBit!
    Комментировать посты могут только пользователи прошедшие не сложную регистрацию
    Показать сообщения:    

    Репост через торрент
    Скачать бесплатно Репост
    Репост скачать торрент
    Репост смотреть онлайн
    Cкачать фильм Репост бесплатно
    Репост скачать торрент в хорошем качестве
    Репост смотреть онлайн бесплатно в хорошем качестве


    Вы не можете начинать темы
    Вы не можете отвечать на сообщения
    Вы не можете редактировать свои сообщения
    Вы не можете удалять свои сообщения
    Вы не можете голосовать в опросах
    Вы не можете прикреплять файлы к сообщениям
    Вы можете скачивать файлы