Ссылка на приватное зеркало всего за 1$. Внимание количество ограничено!!!

OK

1+1

iTunes

мы

OK

1

WEB-DLRip

Джокер

Пифагор

Ведьмак / The Witcher сериал

iTunes

ПШазам

ОК

Оно 2

iTunes

30
pack

Вам бонус

ВАЖНО

!!Акция!!

Alien_RageХит недели

RePack

Resident Evil 21

ИГРА 18+

pack

RePack

jed

RePack

fifa19

RePack

Assassins Creed: Odyssey

RePack

NEED FOR SPEED™ PAYBACK

4 сезон

9 сезон

Бесстыжие 9 сезон

Все сериалы

все сериалы на PB.wtf

RePack

FAR CRY 5
  

Улица космонавтов (Марианна Рошаль) [1963, СССР, детский, комедия, VHSRip от AVP Studio] pb.wtf

Улица космонавтов через торрент pb.wtf

Раздают: 3 [ 0 KB/s ]
Размер: 1.09 GB | Добавлен: 5 мес. 24 д. назад | Торрент скачан:13 раз
Скачать  

01-08-2019 09:59 Улица космонавтов Скачать торрент  

Улица космонавтов
Страна: СССР
Производство: Киргизфильм

Жанр: детский, комедия
Год выпуска: 1963
Продолжительность: 01:17:30

Перевод: Не требуется
Cубтитры: нет
Оригинальная аудиодорожка: русский

Режиссер: Марианна Рошаль

В ролях:
Арстанбек Ирсалиев, Володя Зеленин, Толеш Океев, Анара Садыкова, Виктор Колпаков, Даркуль Куюкова, Шамши Тюменбаев, Кумболот Досумбаев, Бакы Омуралиев, Владимир Смирнов, К. Эсенов, Султангазы Ирсалиев, Чоробек Осмонов, Иманкул Абдыкулов, Р. Кулманбетова, А. Кыдыкбаева, К. Рысмендиева, Сагын Иманкулов, Миша Котов...
Об актёрах подробней

Описание:
Фильм о мальчишках, мечтающих стать космонавтами. Двое приятелей построили целый космодром, для экспериментов утащили у подружки щенка Шарика, переименовав его в Марсика, ели одну селедочную пасту из тюбика для тренировок, и воевали с жадным спекулянтом Закурдаевым, который заминировал свой сад, чтоб мальчишки туда не лазали.

Исходник: S-VHS
Качество видео: VHSRip
Формат видео: AVI

Видео: 704x528 (4:3), 25,000 кадров/сек, XviD ~ 1816 kbps avg, 0.195 bit/pixel
Аудио: 48 kHz, Dolby Digital AC3 2.0, 192 kbps

Раздача от:
Общее
Полное имя : Ulica.kosmonavtov.1963.VHSRip_[New-team]_by_AVP_Studio.avi
Формат : AVI
Формат/Информация : Audio Video Interleave
Размер файла : 1,09 Гбайт
Продолжительность : 1 ч. 17 м.
Общий поток : 2017 Кбит/сек
Программа кодирования : VirtualDubMod 1.5.10.3 | www.virtualdub-fr.org || (build 2550/release)
Библиотека кодирования : VirtualDubMod build 2550/release

Видео
Идентификатор : 0
Формат : MPEG-4 Visual
Профиль формата : Advanced Simple@L5
Настройки формата : BVOP1 / Custom Matrix
Параметр BVOP формата : 1
Параметр QPel формата : Нет
Параметр GMC формата : Без точки перехода
Параметр матрицы формата : Выборочная
Идентификатор кодека : XVID
Идентификатор кодека/Подсказка : XviD
Продолжительность : 1 ч. 17 м.
Битрейт : 1816 Кбит/сек
Ширина : 704 пикселя
Высота : 528 пикселей
Соотношение сторон : 4:3
Частота кадров : 25,000 кадров/сек
Цветовое пространство : YUV
Субдискретизация насыщенности : 4:2:0
Битовая глубина : 8 бит
Тип развёртки : Прогрессивная
Метод сжатия : С потерями
Бит/(Пиксели*Кадры) : 0.195
Размер потока : 1004 Мбайт (90%)
Библиотека кодирования : XviD 73

Аудио
Идентификатор : 1
Формат : AC-3
Формат/Информация : Audio Coding 3
Коммерческое название : Dolby Digital
Идентификатор кодека : 2000
Продолжительность : 1 ч. 17 м.
Вид битрейта : Постоянный
Битрейт : 192 Кбит/сек
Каналы : 2 канала
ChannelLayout : L R
Частота : 48,0 КГц
Частота кадров : 31,250 кадров/сек (1536 SPF)
Битовая глубина : 16 бит
Метод сжатия : С потерями
Размер потока : 106 Мбайт (10%)
Выравнивание : Разделение по промежуткам
Продолжительность промежутка : 40 мс. (1,00 видеокадр)
Время предзагрузки промежутка : 500 мс.
pb.wtf



Скачать Улица космонавтов через торрент http://b.radikal.ru/b30/1911/14/36a74ae32606.png Скачать фильм Улица космонавтов через торрент бесплантно в хорошем качестве Описание:Фильм о мальчишках, мечтающих стать космонавтами. Двое приятелей построили целый космодром, для экспериментов утащили у подружки ... 9.5 10 2
Торрент: Зарегистрирован [2019-08-01 09:59] · скачан: 13 раз
Статус: √ проверено
Размер: 1.09 GB
Как cкачать? Как скачать Улица космонавтов через торрент | qTorrent

% Раздел Тема Автор DL S | L
Детские отечественные фильмы [ 1.09 GB ] Улица космонавтов [1963 СССР детский VHSRip-AVC от AVP Studio] AVP Studio Скачать
1 | 0

28-11-2019 20:33  

Отключить всю рекламу на сайте


    Дорогой пользователь! Огромная просьба, поблагодарите релизера, оцените раздачу и оставьте свои комментарий, если Вы скачали Улица космонавтов через торрент бесплатно! Внесите свою лепту в развитие PiratBit!
    Комментировать посты могут только пользователи прошедшие не сложную регистрацию
    Показать сообщения:    

    Улица космонавтов через торрент
    Скачать бесплатно Улица космонавтов
    Улица космонавтов скачать торрент
    Улица космонавтов смотреть онлайн
    Cкачать фильм Улица космонавтов бесплатно
    Улица космонавтов скачать торрент в хорошем качестве
    Улица космонавтов смотреть онлайн бесплатно в хорошем качестве


    Вы не можете начинать темы
    Вы не можете отвечать на сообщения
    Вы не можете редактировать свои сообщения
    Вы не можете удалять свои сообщения
    Вы не можете голосовать в опросах
    Вы не можете прикреплять файлы к сообщениям
    Вы можете скачивать файлы