Ссылка на приватное зеркало нашего сайта всего за 1$. Внимание количество ограничено!!!

2 сезон

iTunes

1 сезон

1

iTunes

iTunes

iTunes

1 сезон

RePack

30

ИГРА 18+

pack

ВАЖНО

!!Акция!!

Alien_RageХит недели

RePack

MK11
pack

Забери бонус

RePack

jed

!!Акция!!

Alien_Rage

RePack

fifa19

RePack

Assassins Creed: Odyssey

RePack

NEED FOR SPEED™ PAYBACK

4 сезон

9 сезон

Бесстыжие 9 сезон

Все сериалы

все сериалы на PB.wtf

RePack

FAR CRY 5
  

Петербург. Любовь. До востребования / Серии: 1-4 из 4 (Дмитрий Светозаров) [2019, Мелодрама, SATRip] pb.wtf

Петербург. Любовь. До востребования через торрент pb.wtf

Размер: 2.34 GB | Добавлен: 1 год 2 мес. назад | Торрент скачан:35 раз
Скачать  

01-08-2019 16:25 Петербург. Любовь. До востребования Скачать торрент  

Петербург. Любовь. До востребования Год выпуска: 2019
Страна: Россия
Жанр: Мелодрама
Продолжительность: ~ 00:50:00 серия
Субтитры: отсутствуют

Режиссер: Дмитрий Светозаров



В ролях: Юлия Пересильд, Сергей Перегудов, Александр Устюгов, Юрий Кузнецов, Эра Зиганшина, Рудольф Фурманов, Наталья Бурмистрова (II), Сергей Мардарь, Лариса Леонова, Татьяна Тузова, Егор Бакулин, Татьяна Полонская

Описание: Молодая учительница из глубинки Светлана, приехав на семинар в Петербург, знакомится с геологом-нефтяником Федором, который влюбляется в наивную провинциалку. Он бросает экспедицию, делает девушке предложение и устраивает их уютное семейное гнездышко. Казалось бы, жизнь могла бы стать сплошным «днем счастья», но роскошный особняк со временем превращается для Светланы в золотую клетку. Однажды прогуливаясь по Петербургу, она знакомится с интеллигентным врачом скорой помощи, Березкиным. Влюблённый в свой родной город и увлекающийся историей, он превращает их совместные путешествия по Питеру в увлекательные экскурсии. Постепенно между молодыми людьми вспыхивает искреннее чувство.

Качество: SATRip
Формат: AVI

Видео: XviD, ~ 1500 Кбит/с, 720x400
Аудио: MP3, 2 ch, 192 Кбит/с
скриншот  скриншот  скриншот  скриншот  

Общее
Полное имя : D:\Peterburg.lyubov.Do.vostrebovaniya.2019.XviD.SATRip.25Kuzmich\Peterburg.lyubov.Do.vostrebovaniya.(01.seriya.iz.04).XviD.SATRip.25Kuzmich.avi
Формат : AVI
Формат/Информация : Audio Video Interleave
Размер файла : 600 Мбайт
Продолжительность : 51 м. 12 с.
Общий поток : 1639 Кбит/сек
Программа кодирования : VirtualDubMod 1.5.10.3 | www.virtualdub-fr.org || (build 2550/release)
Библиотека кодирования : VirtualDubMod build 2550/release

Видео
Идентификатор : 0
Формат : MPEG-4 Visual
Профиль формата : Advanced Simple@L5
Параметр BVOP формата : 1
Параметр QPel формата : Нет
Параметр GMC формата : Без точки перехода
Параметр матрицы формата : Default (MPEG)
Идентификатор кодека : XVID
Идентификатор кодека/Подсказка : XviD
Продолжительность : 51 м. 12 с.
Битрейт : 1437 Кбит/сек
Ширина : 720 пикселей
Высота : 400 пикселей
Соотношение сторон : 16:9
Частота кадров : 25,000 кадров/сек
Цветовое пространство : YUV
Субдискретизация насыщенности : 4:2:0
Битовая глубина : 8 бит
Тип развёртки : Прогрессивная
Метод сжатия : С потерями
Бит/(Пиксели*Кадры) : 0.200
Размер потока : 526 Мбайт (88%)
Библиотека кодирования : XviD 73

Аудио
Идентификатор : 1
Формат : MPEG Audio
Версия формата : Version 1
Профиль формата : Layer 3
Режим : Joint stereo
Идентификатор кодека : 55
Идентификатор кодека/Подсказка : MP3
Продолжительность : 51 м. 12 с.
Вид битрейта : Постоянный
Битрейт : 192 Кбит/сек
Каналы : 2 канала
Частота : 48,0 КГц
Метод сжатия : С потерями
Размер потока : 70,3 Мбайт (12%)
Выравнивание : Соединение по промежуткам
Продолжительность промежутка : 40 мс. (1,00 видеокадр)
Время предзагрузки промежутка : 504 мс.
Библиотека кодирования : LAME3.99r
Настройки программы : -m j -V 4 -q 2 -lowpass 18.6 -b 192

pb.wtf



Скачать Петербург. Любовь. До востребования через торрент https://i87.fastpic.ru/big/2019/0801/66/180f3fbf9de704728c5899c7a9a3dd66.jpg Скачать фильм Петербург. Любовь. До востребования через торрент бесплантно в хорошем качестве Описание: Молодая учительница из глубинки Светлана, приехав на семинар в Петербург, знакомится с геологом-нефтяником Федором, который ... 10 10 3
Торрент: Зарегистрирован [2019-08-01 16:25] · скачан: 35 раз
Статус: √ проверено
Размер: 2.34 GB
Как cкачать? Как скачать Петербург. Любовь. До востребования через торрент | qTorrent

% Раздел Тема Автор DL S | L
Наши сериалы [ 5.27 GB ] Петербур Любовь. До востребования / Серии: 1-4 из 4 [2019 Мело HDTVRip 720p] bober100 Скачать
1 | 0
Наши сериалы [ 3.13 GB ] Петербур Любовь. До востребования / Серии: 1-4 из 4 [2019 Мело HDTVRip-AVC] bober100 Скачать
1 | 0
Наши сериалы [ 2.54 GB ] Петербур Любовь. До востребования / Серии: 1-4 из 4 [2019 Мело HDTVRip] bober100 Скачать
1 | 0
Наши сериалы [ 9.06 GB ] Петербур Любовь. До востребования / Серии: 1-4 из 4 [2019 Мело HDTV 1080i] bober100 Скачать
1 | 0
Наши сериалы [ 2.46 GB ] Петербур Любовь. До востребования / Серии: 1-4 из 4 [2018 SATRip-AVC] aleksan55 Скачать
1 | 0

28-11-2019 20:33  

Отключить всю рекламу на сайте

    Дорогой пользователь! Огромная просьба, поблагодарите релизера, оцените раздачу и оставьте свои комментарий, если Вы скачали Петербург. Любовь. До востребования через торрент бесплатно! Внесите свою лепту в развитие PiratBit!
    Комментировать посты могут только пользователи прошедшие не сложную регистрацию
    Показать сообщения:    

    Петербург. Любовь. До востребования через торрент
    Скачать бесплатно Петербург. Любовь. До востребования
    Петербург. Любовь. До востребования скачать торрент
    Петербург. Любовь. До востребования смотреть онлайн
    Cкачать фильм Петербург. Любовь. До востребования бесплатно
    Петербург. Любовь. До востребования скачать торрент в хорошем качестве
    Петербург. Любовь. До востребования смотреть онлайн бесплатно в хорошем качестве


    Вы не можете начинать темы
    Вы не можете отвечать на сообщения
    Вы не можете редактировать свои сообщения
    Вы не можете удалять свои сообщения
    Вы не можете голосовать в опросах
    Вы не можете прикреплять файлы к сообщениям
    Вы можете скачивать файлы