Ссылка на приватное зеркало нашего сайта всего за 1$. Внимание количество ограничено!!!

2 сезон

iTunes

1 сезон

1

2 сезон

2 сезон

iTunes

1 сезон

RePack

30

Новинка

ВАЖНО

ИГРА 18+

pack

RePack

MK11
pack

Забери бонус

RePack

jed

!!Акция!!

Alien_Rage

RePack

fifa19

RePack

Assassins Creed: Odyssey

RePack

NEED FOR SPEED™ PAYBACK

4 сезон

9 сезон

Бесстыжие 9 сезон

Все сериалы

все сериалы на PB.wtf

RePack

FAR CRY 5
  

Миньоны / Minions (Кайл Балда, Пьер Коффан) [2015, мультфильм, комедия, семейный, UHD BDRemux 2160p] DUB (rus, ukr) [Лицензия] pb.wtf

Миньоны через торрент pb.wtf

Размер: 51.69 GB | Добавлен: 1 год 3 мес. назад | Торрент скачан:13 раз
Скачать  

01-08-2019 16:26 Миньоны Скачать торрент  

Миньоны / Minions««Ой, всё»»

Год выпуска: 2015
Страна: США
Жанр: мультфильм, комедия, семейный
Продолжительность: 01:30:58
Перевод: Дублированный
Субтитры: Русские, украинские, английские, датские, финские, норвежские, шведские
Режиссер: Кайл Балда, Пьер Коффан
В ролях:

Сандра Буллок (Scarlet Overkill, озвучка,), Джон Хэмм (Herb Overkill, озвучка), Майкл Китон (Walter Nelson, озвучка), Эллисон Дженни (Madge Nelson, озвучка), Стив Куган (Professor Flux, озвучка), Дженнифер Сондерс (The Queen, озвучка), Джеффри Раш (рассказчик, озвучка), Стив Карелл (Young Gru, озвучка), Пьер Коффан (The Minions, озвучка), Кэти Миксон (Tina, озвучка), Майкл Битти (VNC Announcer, озвучка), Хироюки Санада (Sumo Villain, озвучка)
Описание:
Миньоны живут на планете гораздо дольше нас. У них одна навязчивая идея - служить самой Гадкой личности из имеющихся в наличии. Динозавры, фараоны, Дракула, Наполеон - все они оказались недолговечны. И тогда миньоны рванули в Нью-Йорк. Их ждут деньги, Влacть, роковая суперзлодейка Скарлет Оверкилл и, конечно же, вкуснейшая «банана»! Во всяком случае, так им кажется.
Рейтинг:

MPAA: PG - Рекомендуется присутствие родителей
Качество: UHD BDRemux 2160p
Формат: MKV
Видео: MPEG-H HEVC Video 67558 kbps2160p / 23.976 fps / 16:9 / Main 10 Profile 5.1 High / 4:2:0 / 10 bits / HDR / BT.2020 /

Аудио:
Dolby Atmos / TrueHD Audio Английский 5904 kbps 7.1-Atmos / 48 кГц / 5904 кбит / с / 24-бит (AC3 Core: 5.1 -EX / 48 кГц / 640 кбит / с)
Digital Theater Systems (DTS-MA) 3960 kbps /1509kbps 7.1 /5.1 / 48 кГц
Dolby Digital Audio Русский 640 Кбит / с 5.1 / 48 кГц / 640 кбит / с
Dolby Digital Audio Украинский 640 Кбит / с 5.1 / 48 кГц / 640 кбит / с
Dolby Digital Audio Датский 640 кбит / с 5.1 / 48 кГц / 640 кбит / с
Dolby Digital Audio Финский 640 кбит / с 5.1 / 48 кГц / 640 кбит / с
Dolby Digital Audio Норвежский 640 кбит / с 5.1 / 48 кГц / 640 кбит / с
Dolby Digital Audio Шведский 640 кбит / с 5.1 / 48 кГц / 640 кбит / с
Навигация по главам: есть

Видео
Идентификатор : 1
Формат : HEVC
Формат/Информация : High Efficiency Video Coding
Профиль формата : Main 10@L5.1@High
Идентификатор кодека : V_MPEGH/ISO/HEVC
Продолжительность : 1 ч. 30 м.
Битрейт : 67,6 Мбит/сек
Ширина : 3840 пикселей
Высота : 2160 пикселей
Соотношение сторон : 16:9
Режим частоты кадров : Постоянный
Частота кадров : 23,976 (24000/1001) кадра/сек
Цветовое пространство : YUV
Субдискретизация насыщенности : 4:2:0 (Type 2)
Битовая глубина : 10 бит
Бит/(Пиксели*Кадры) : 0.340
Размер потока : 42,9 Гбайт (83%)
Заголовок : Minions.2015.2160p.BluRay.REMUX.HEVC.HDR.
Библиотека кодирования : ATEME Titan File 3.8.3 (4.8.3.0)
Default : Да
Forced : Нет
Цветовой диапазон : Limited
Основные цвета : BT.2020
Характеристики трансфера : PQ
Коэффициенты матрицы : BT.2020 non-constant
MasteringDisplay_ColorPrimaries : R: x=0.680000 y=0.320000, G: x=0.265000 y=0.690000, B: x=0.150000 y=0.060000, White point: x=0.312700 y=0.329000
MasteringDisplay_Luminance : min: 0.0050 cd/m2, max: 1000.0000 cd/m2
MaxCLL : 739 cd/m2
MaxFALL : 331 cd/m2

Аудио #1
Идентификатор : 2
Формат : AC-3
Формат/Информация : Audio Coding 3
Параметр Endianness формата : Big
Идентификатор кодека : A_AC3
Продолжительность : 1 ч. 30 м.
Вид битрейта : Постоянный
Битрейт : 640 Кбит/сек
Каналы : 6 каналов
Расположение каналов : Front: L C R, Side: L R, LFE
Частота : 48,0 КГц
Частота кадров : 31,250 кадров/сек (1536 SPF)
Битовая глубина : 16 бит
Метод сжатия : С потерями
Размер потока : 416 Мбайт (1%)
Заголовок : Russian
Язык : Russian
ServiceKind/String : Complete Main
Default : Да
Forced : Нет

Аудио #2
Идентификатор : 3
Формат : AC-3
Формат/Информация : Audio Coding 3
Параметр Endianness формата : Big
Идентификатор кодека : A_AC3
Продолжительность : 1 ч. 30 м.
Вид битрейта : Постоянный
Битрейт : 640 Кбит/сек
Каналы : 6 каналов
Расположение каналов : Front: L C R, Side: L R, LFE
Частота : 48,0 КГц
Частота кадров : 31,250 кадров/сек (1536 SPF)
Битовая глубина : 16 бит
Метод сжатия : С потерями
Размер потока : 416 Мбайт (1%)
Заголовок : Ukrainian
Язык : Ukrainian
ServiceKind/String : Complete Main
Default : Нет
Forced : Нет

Аудио #3
Идентификатор : 4
Формат : TrueHD
Профиль формата : TrueHD+Atmos / TrueHD
Идентификатор кодека : A_TRUEHD
Продолжительность : 1 ч. 30 м.
Вид битрейта : Переменный
Битрейт : 5264 Кбит/сек
Максимальный битрейт : 7269 Кбит/сек
Каналы : Object Based / 8 каналов
Расположение каналов : Object Based / Front: L C R, Side: L R, Back: L R, LFE
Частота : / 48,0 КГц
Частота кадров : 1200,000 кадров/сек (40 SPF)
Метод сжатия : Без потерь
Задержка видео : 32 мс.
Размер потока : 3,34 Гбайт (6%)
Заголовок : English TrueHD Atmos
Язык : English
Default : Нет
Forced : Нет

Аудио #4
Идентификатор : 5
Формат : DTS
Формат/Информация : Digital Theater Systems
Профиль формата : MA / Core
Режим : 16
Параметр Endianness формата : Big
Идентификатор кодека : A_DTS
Продолжительность : 1 ч. 30 м.
Вид битрейта : Переменный / Постоянный
Битрейт : 3960 Кбит/сек / 1509 Кбит/сек
Каналы : 8 каналов / 6 каналов
Расположение каналов : Front: L C R, Side: L R, Back: L R, LFE / Front: L C R, Side: L R, LFE
Частота : 48,0 КГц
Частота кадров : 93,750 кадра/сек (512 SPF)
Битовая глубина : 24 бит
Метод сжатия : Без потерь / Lossy
Размер потока : 2,52 Гбайт (5%)
Заголовок : English DTS-MA
Язык : English
Default : Нет
Forced : Нет

Аудио #5
Идентификатор : 6
Формат : AC-3
Формат/Информация : Audio Coding 3
Параметр Endianness формата : Big
Идентификатор кодека : A_AC3
Продолжительность : 1 ч. 30 м.
Вид битрейта : Постоянный
Битрейт : 640 Кбит/сек
Каналы : 6 каналов
Расположение каналов : Front: L C R, Side: L R, LFE
Частота : 48,0 КГц
Частота кадров : 31,250 кадров/сек (1536 SPF)
Битовая глубина : 16 бит
Метод сжатия : С потерями
Задержка видео : 31 мс.
Размер потока : 416 Мбайт (1%)
Заголовок : English
Язык : English
ServiceKind/String : Complete Main
Default : Нет
Forced : Нет

Аудио #6
Идентификатор : 7
Формат : AC-3
Формат/Информация : Audio Coding 3
Параметр Endianness формата : Big
Идентификатор кодека : A_AC3
Продолжительность : 1 ч. 30 м.
Вид битрейта : Постоянный
Битрейт : 640 Кбит/сек
Каналы : 6 каналов
Расположение каналов : Front: L C R, Side: L R, LFE
Частота : 48,0 КГц
Частота кадров : 31,250 кадров/сек (1536 SPF)
Битовая глубина : 16 бит
Метод сжатия : С потерями
Размер потока : 416 Мбайт (1%)
Заголовок : Danish
Язык : Danish
ServiceKind/String : Complete Main
Default : Нет
Forced : Нет

Аудио #7
Идентификатор : 8
Формат : AC-3
Формат/Информация : Audio Coding 3
Параметр Endianness формата : Big
Идентификатор кодека : A_AC3
Продолжительность : 1 ч. 30 м.
Вид битрейта : Постоянный
Битрейт : 640 Кбит/сек
Каналы : 6 каналов
Расположение каналов : Front: L C R, Side: L R, LFE
Частота : 48,0 КГц
Частота кадров : 31,250 кадров/сек (1536 SPF)
Битовая глубина : 16 бит
Метод сжатия : С потерями
Размер потока : 416 Мбайт (1%)
Заголовок : Finnish
Язык : Finnish
ServiceKind/String : Complete Main
Default : Нет
Forced : Нет

Аудио #8
Идентификатор : 9
Формат : AC-3
Формат/Информация : Audio Coding 3
Параметр Endianness формата : Big
Идентификатор кодека : A_AC3
Продолжительность : 1 ч. 30 м.
Вид битрейта : Постоянный
Битрейт : 640 Кбит/сек
Каналы : 6 каналов
Расположение каналов : Front: L C R, Side: L R, LFE
Частота : 48,0 КГц
Частота кадров : 31,250 кадров/сек (1536 SPF)
Битовая глубина : 16 бит
Метод сжатия : С потерями
Размер потока : 416 Мбайт (1%)
Заголовок : Norwegian
Язык : Norwegian
ServiceKind/String : Complete Main
Default : Нет
Forced : Нет

Аудио #9
Идентификатор : 10
Формат : AC-3
Формат/Информация : Audio Coding 3
Параметр Endianness формата : Big
Идентификатор кодека : A_AC3
Продолжительность : 1 ч. 30 м.
Вид битрейта : Постоянный
Битрейт : 640 Кбит/сек
Каналы : 6 каналов
Расположение каналов : Front: L C R, Side: L R, LFE
Частота : 48,0 КГц
Частота кадров : 31,250 кадров/сек (1536 SPF)
Битовая глубина : 16 бит
Метод сжатия : С потерями
Размер потока : 416 Мбайт (1%)
Заголовок : Swedish
Язык : Swedish
ServiceKind/String : Complete Main
Default : Нет
Forced : Нет

Текст #1
Идентификатор : 11
Формат : PGS
Режим смешивания : zlib
Идентификатор кодека : S_HDMV/PGS
Идентификатор кодека/Информация : Picture based subtitle format used on BDs/HD-DVDs
Продолжительность : 1 ч. 29 м.
Битрейт : 21,1 Кбит/сек
ElementCount : 1258
Размер потока : 13,5 Мбайт (0%)
Заголовок : Russian-PGS
Язык : Russian
Default : Нет
Forced : Нет

Текст #2
Идентификатор : 12
Формат : PGS
Режим смешивания : zlib
Идентификатор кодека : S_HDMV/PGS
Идентификатор кодека/Информация : Picture based subtitle format used on BDs/HD-DVDs
Продолжительность : 1 ч. 25 м.
Битрейт : 1066 бит/сек
ElementCount : 80
Размер потока : 671 Кбайт (0%)
Заголовок : Russian-FORCED-PGS
Язык : Russian
Default : Да
Forced : Нет

Текст #3
Идентификатор : 13
Формат : UTF-8
Идентификатор кодека : S_TEXT/UTF8
Идентификатор кодека/Информация : UTF-8 Plain Text
Продолжительность : 1 ч. 29 м.
Битрейт : 52 бит/сек
ElementCount : 631
Размер потока : 34,3 Кбайт (0%)
Заголовок : Повні
Язык : Ukrainian
Default : Нет
Forced : Нет

Текст #4
Идентификатор : 14
Формат : UTF-8
Идентификатор кодека : S_TEXT/UTF8
Идентификатор кодека/Информация : UTF-8 Plain Text
Продолжительность : 1 ч. 16 м.
Битрейт : 2 бит/сек
ElementCount : 41
Размер потока : 1,55 Кбайт (0%)
Заголовок : Форсовані
Язык : Ukrainian
Default : Нет
Forced : Нет

Текст #5
Идентификатор : 15
Формат : PGS
Режим смешивания : zlib
Идентификатор кодека : S_HDMV/PGS
Идентификатор кодека/Информация : Picture based subtitle format used on BDs/HD-DVDs
Продолжительность : 1 ч. 30 м.
Битрейт : 45,3 Кбит/сек
ElementCount : 3372
Размер потока : 29,4 Мбайт (0%)
Заголовок : English-PGS
Язык : English
Default : Нет
Forced : Нет

Текст #6
Идентификатор : 16
Формат : PGS
Режим смешивания : zlib
Идентификатор кодека : S_HDMV/PGS
Идентификатор кодека/Информация : Picture based subtitle format used on BDs/HD-DVDs
Продолжительность : 1 ч. 29 м.
Битрейт : 21,0 Кбит/сек
ElementCount : 1232
Размер потока : 13,4 Мбайт (0%)
Заголовок : Danish-PGS
Язык : Danish
Default : Нет
Forced : Нет

Текст #7
Идентификатор : 17
Формат : PGS
Режим смешивания : zlib
Идентификатор кодека : S_HDMV/PGS
Идентификатор кодека/Информация : Picture based subtitle format used on BDs/HD-DVDs
Продолжительность : 1 ч. 25 м.
Битрейт : 702 бит/сек
ElementCount : 52
Размер потока : 442 Кбайт (0%)
Заголовок : Danish-FORCED-PGS
Язык : Danish
Default : Нет
Forced : Нет

Текст #8
Идентификатор : 18
Формат : PGS
Режим смешивания : zlib
Идентификатор кодека : S_HDMV/PGS
Идентификатор кодека/Информация : Picture based subtitle format used on BDs/HD-DVDs
Продолжительность : 1 ч. 29 м.
Битрейт : 19,9 Кбит/сек
ElementCount : 1226
Размер потока : 12,7 Мбайт (0%)
Заголовок : Finnish-PGS
Язык : Finnish
Default : Нет
Forced : Нет

Текст #9
Идентификатор : 19
Формат : PGS
Режим смешивания : zlib
Идентификатор кодека : S_HDMV/PGS
Идентификатор кодека/Информация : Picture based subtitle format used on BDs/HD-DVDs
Продолжительность : 1 ч. 25 м.
Битрейт : 804 бит/сек
ElementCount : 58
Размер потока : 505 Кбайт (0%)
Заголовок : Finnish-FORCED-PGS
Язык : Finnish
Default : Нет
Forced : Нет

Текст #10
Идентификатор : 20
Формат : PGS
Режим смешивания : zlib
Идентификатор кодека : S_HDMV/PGS
Идентификатор кодека/Информация : Picture based subtitle format used on BDs/HD-DVDs
Продолжительность : 1 ч. 29 м.
Битрейт : 19,1 Кбит/сек
ElementCount : 1224
Размер потока : 12,2 Мбайт (0%)
Заголовок : Norwegian-PGS
Язык : Norwegian
Default : Нет
Forced : Нет

Текст #11
Идентификатор : 21
Формат : PGS
Режим смешивания : zlib
Идентификатор кодека : S_HDMV/PGS
Идентификатор кодека/Информация : Picture based subtitle format used on BDs/HD-DVDs
Продолжительность : 1 ч. 25 м.
Битрейт : 572 бит/сек
ElementCount : 50
Размер потока : 360 Кбайт (0%)
Заголовок : Norwegian-FORCED-PGS
Язык : Norwegian
Default : Нет
Forced : Нет

Текст #12
Идентификатор : 22
Формат : PGS
Режим смешивания : zlib
Идентификатор кодека : S_HDMV/PGS
Идентификатор кодека/Информация : Picture based subtitle format used on BDs/HD-DVDs
Продолжительность : 1 ч. 29 м.
Битрейт : 19,8 Кбит/сек
ElementCount : 1222
Размер потока : 12,6 Мбайт (0%)
Заголовок : Swedish-PGS
Язык : Swedish
Default : Нет
Forced : Нет

Текст #13
Идентификатор : 23
Формат : PGS
Режим смешивания : zlib
Идентификатор кодека : S_HDMV/PGS
Идентификатор кодека/Информация : Picture based subtitle format used on BDs/HD-DVDs
Продолжительность : 1 ч. 25 м.
Битрейт : 691 бит/сек
ElementCount : 48
Размер потока : 434 Кбайт (0%)
Заголовок : Swedish-FORCED-PGS
Язык : Swedish
Default : Нет
Forced : Нет

Меню
00:00:00.000 : en:Chapter 1
00:05:39.839 : en:Chapter 2
00:11:28.938 : en:Chapter 3
00:16:55.139 : en:Chapter 4
00:22:28.430 : en:Chapter 5
00:26:59.034 : en:Chapter 6
00:32:54.639 : en:Chapter 7
00:37:28.871 : en:Chapter 8
00:40:58.831 : en:Chapter 9
00:45:29.309 : en:Chapter 10
00:49:24.086 : en:Chapter 11
00:53:43.053 : en:Chapter 12
00:57:04.921 : en:Chapter 13
01:01:36.943 : en:Chapter 14
01:05:54.700 : en:Chapter 15
01:07:55.237 : en:Chapter 16
01:11:19.149 : en:Chapter 17
01:15:32.653 : en:Chapter 18
01:21:12.826 : en:Chapter 19
01:28:24.757 : en:Chapter 20
pb.wtf



Скачать Миньоны через торрент https://d.radikal.ru/d21/1908/d2/c2139260ddfe.png Скачать фильм Миньоны через торрент бесплантно в хорошем качестве Описание: Миньоны живут на планете гораздо дольше нас. У них одна навязчивая идея - служить самой Гадкой личности из имеющихся в наличии. ... 10 10 3
Торрент: Зарегистрирован [2019-08-01 16:26] · скачан: 13 раз
Статус: √ проверено
Размер: 51.69 GB
Как cкачать? Как скачать Миньоны через торрент | qTorrent

% Раздел Тема Автор DL S | L
Ultra HD (UHD: 2K, 4K, 8K) [ 12.4 GB ] Миньоны / Minions [2015 мультфильм UHD BDRip 2160p] sheker187 Скачать
1 | 0
Короткометражные мультфильмы [ 99 MB ] Миньоны против газона / Mower Minions [2016 короткометражный HDRip-AVC Любительский ] oleg8 Скачать
1 | 0
Короткометражные мультфильмы [ 59 MB ] Миньоны против газона / Mower Minions [2016 короткометражный BDRip] SUB koenig Скачать
2 | 0
Зарубежные Мультфильмы (BDRip 1080p, 720p, Blu-ray, BD-Remux) [ 5.37 GB ] Миньоны / Minions [2015 мультфильм BDRip 720p] DUB potroks Скачать
5 | 0
Иностранные мультфильмы [ 2.19 GB ] Миньоны / Minions [2015 мультфильм BDRip-AVC от sokol_ok] DUB sokol_ok Скачать
2 | 0
Иностранные мультфильмы [ 2.18 GB ] Миньоны / Minions [2015 мультфильм BDRip-AVC] DUB potroks Скачать
1 | 0
Иностранные мультфильмы [ 1.46 GB ] Миньоны / Minions [2015 мультфильм BDRip-AVC от sokol_ok] DUB sokol_ok Скачать
4 | 0

28-11-2019 20:33  

Отключить всю рекламу на сайте

    Дорогой пользователь! Огромная просьба, поблагодарите релизера, оцените раздачу и оставьте свои комментарий, если Вы скачали Миньоны через торрент бесплатно! Внесите свою лепту в развитие PiratBit!
    Комментировать посты могут только пользователи прошедшие не сложную регистрацию
    Показать сообщения:    

    Миньоны через торрент
    Скачать бесплатно Миньоны
    Миньоны скачать торрент
    Миньоны смотреть онлайн
    Cкачать фильм Миньоны бесплатно
    Миньоны скачать торрент в хорошем качестве
    Миньоны смотреть онлайн бесплатно в хорошем качестве


    Вы не можете начинать темы
    Вы не можете отвечать на сообщения
    Вы не можете редактировать свои сообщения
    Вы не можете удалять свои сообщения
    Вы не можете голосовать в опросах
    Вы не можете прикреплять файлы к сообщениям
    Вы можете скачивать файлы