Ссылка на приватное зеркало нашего сайта всего за 1$. Внимание количество ограничено!!!

2 сезон

iTunes

1 сезон

1

iTunes

iTunes

iTunes

1 сезон

RePack

30

ИГРА 18+

pack

ВАЖНО

!!Акция!!

Alien_RageХит недели

RePack

MK11
pack

Забери бонус

RePack

jed

!!Акция!!

Alien_Rage

RePack

fifa19

RePack

Assassins Creed: Odyssey

RePack

NEED FOR SPEED™ PAYBACK

4 сезон

9 сезон

Бесстыжие 9 сезон

Все сериалы

все сериалы на PB.wtf

RePack

FAR CRY 5
  

Петербург. Любовь. До востребования / Серии: 1-4 из 4 (Дмитрий Светозаров) [2019, Мелодрама, HDTV 1080i] pb.wtf

Петербург. Любовь. До востребования через торрент pb.wtf

Размер: 9.06 GB | Добавлен: 1 год 2 мес. назад | Торрент скачан:17 раз
Скачать  

01-08-2019 17:18 Петербург. Любовь. До востребования Скачать торрент  

Петербург. Любовь. До востребования Год выпуска: 2019
Страна: Россия
Жанр: Мелодрама
Продолжительность: ~ 00:50:00 серия
Субтитры: отсутствуют

Режиссер: Дмитрий Светозаров



В ролях: Юлия Пересильд, Сергей Перегудов, Александр Устюгов, Юрий Кузнецов, Эра Зиганшина, Рудольф Фурманов, Наталья Бурмистрова (II), Сергей Мардарь, Лариса Леонова, Татьяна Тузова, Егор Бакулин, Татьяна Полонская

Описание: Молодая учительница из глубинки Светлана, приехав на семинар в Петербург, знакомится с геологом-нефтяником Федором, который влюбляется в наивную провинциалку. Он бросает экспедицию, делает девушке предложение и устраивает их уютное семейное гнездышко. Казалось бы, жизнь могла бы стать сплошным «днем счастья», но роскошный особняк со временем превращается для Светланы в золотую клетку. Однажды прогуливаясь по Петербургу, она знакомится с интеллигентным врачом скорой помощи, Березкиным. Влюблённый в свой родной город и увлекающийся историей, он превращает их совместные путешествия по Питеру в увлекательные экскурсии. Постепенно между молодыми людьми вспыхивает искреннее чувство.

Качество: HDTV 1080i
Формат: TS

Видео: AVC, ~ 5500 Кбит/с, 1920x1080, 25 кадр/с
Аудио#1: Русский (AC3, 6 ch, 384 Кбит/с)
Аудио#2: Русский (MP2, 2 ch, 192 Кбит/с)
скриншот  скриншот  скриншот  скриншот  

Общее
Идентификатор : 1 (0x1)
Полное имя : D:ЗаписьPeterburg. Ljubov. Do vostrebovanija.HDTV(1080i).GeneralFilm1.Peterburg. Ljubov. Do vostrebovanija.HDTV(1080i).GeneralFilm.ts
Формат : MPEG-TS
Размер файла : 2,31 Гбайт
Продолжительность : 51 м. 12 с.
Режим общего битрейта : Переменный
Общий поток : 6455 Кбит/сек

Видео
Идентификатор : 1904 (0x770)
Идентификатор меню : 80 (0x50)
Формат : AVC
Формат/Информация : Advanced Video Codec
Профиль формата : High@L4
Параметр CABAC формата : Да
Параметр ReFrames формата : 3 кадра
Идентификатор кодека : 27
Продолжительность : 51 м. 12 с.
Битрейт : 5554 Кбит/сек
Ширина : 1920 пикселей
Высота : 1080 пикселей
Соотношение сторон : 16:9
Частота кадров : 25,000 кадров/сек
Стандарт вещания : Component
Цветовое пространство : YUV
Субдискретизация насыщенности : 4:2:0
Битовая глубина : 8 бит
Тип развёртки : Чересстрочная
Метод сохранения типа развёртки : Раздельные поля
Порядок развёртки : Верхнее поле первое
Бит/(Пиксели*Кадры) : 0.107
Размер потока : 1,99 Гбайт (86%)
Цветовой диапазон : Limited
Основные цвета : BT.709
Характеристики трансфера : BT.709
Коэффициенты матрицы : BT.709

Аудио #1
Идентификатор : 2904 (0xB58)
Идентификатор меню : 80 (0x50)
Формат : AC-3
Формат/Информация : Audio Coding 3
Расширение режима : CM (complete main)
Параметр Endianness формата : Big
Идентификатор кодека : 6
Продолжительность : 51 м. 12 с.
Вид битрейта : Постоянный
Битрейт : 384 Кбит/сек
Каналы : 6 каналов
Расположение каналов : Front: L C R, Side: L R, LFE
Частота : 48,0 КГц
Частота кадров : 31,250 кадров/сек (1536 spf)
Битовая глубина : 16 бит
Метод сжатия : С потерями
Задержка видео : -120 мс.
Размер потока : 141 Мбайт (6%)
Язык : Russian

Аудио #2
Идентификатор : 2905 (0xB59)
Идентификатор меню : 80 (0x50)
Формат : MPEG Audio
Версия формата : Version 1
Профиль формата : Layer 2
Идентификатор кодека : 3
Продолжительность : 51 м. 12 с.
Вид битрейта : Постоянный
Битрейт : 192 Кбит/сек
Каналы : 2 канала
Частота : 48,0 КГц
Метод сжатия : С потерями
Задержка видео : -120 мс.
Размер потока : 70,3 Мбайт (3%)
Язык : Russian

pb.wtf



Скачать Петербург. Любовь. До востребования через торрент https://i87.fastpic.ru/big/2019/0801/66/180f3fbf9de704728c5899c7a9a3dd66.jpg Скачать фильм Петербург. Любовь. До востребования через торрент бесплантно в хорошем качестве Описание: Молодая учительница из глубинки Светлана, приехав на семинар в Петербург, знакомится с геологом-нефтяником Федором, который ... 10 10 3
Торрент: Зарегистрирован [2019-08-01 17:18] · скачан: 17 раз
Статус: √ проверено
Размер: 9.06 GB
Как cкачать? Как скачать Петербург. Любовь. До востребования через торрент | qTorrent

% Раздел Тема Автор DL S | L
Наши сериалы [ 5.27 GB ] Петербур Любовь. До востребования / Серии: 1-4 из 4 [2019 Мело HDTVRip 720p] bober100 Скачать
1 | 0
Наши сериалы [ 3.13 GB ] Петербур Любовь. До востребования / Серии: 1-4 из 4 [2019 Мело HDTVRip-AVC] bober100 Скачать
1 | 0
Наши сериалы [ 2.54 GB ] Петербур Любовь. До востребования / Серии: 1-4 из 4 [2019 Мело HDTVRip] bober100 Скачать
1 | 0
Наши сериалы [ 2.34 GB ] Петербур Любовь. До востребования / Серии: 1-4 из 4 [2019 Мело SATRip] bober100 Скачать
1 | 0
Наши сериалы [ 2.46 GB ] Петербур Любовь. До востребования / Серии: 1-4 из 4 [2018 SATRip-AVC] aleksan55 Скачать
1 | 0

28-11-2019 20:33  

Отключить всю рекламу на сайте

    Дорогой пользователь! Огромная просьба, поблагодарите релизера, оцените раздачу и оставьте свои комментарий, если Вы скачали Петербург. Любовь. До востребования через торрент бесплатно! Внесите свою лепту в развитие PiratBit!
    Комментировать посты могут только пользователи прошедшие не сложную регистрацию
    Показать сообщения:    

    Петербург. Любовь. До востребования через торрент
    Скачать бесплатно Петербург. Любовь. До востребования
    Петербург. Любовь. До востребования скачать торрент
    Петербург. Любовь. До востребования смотреть онлайн
    Cкачать фильм Петербург. Любовь. До востребования бесплатно
    Петербург. Любовь. До востребования скачать торрент в хорошем качестве
    Петербург. Любовь. До востребования смотреть онлайн бесплатно в хорошем качестве


    Вы не можете начинать темы
    Вы не можете отвечать на сообщения
    Вы не можете редактировать свои сообщения
    Вы не можете удалять свои сообщения
    Вы не можете голосовать в опросах
    Вы не можете прикреплять файлы к сообщениям
    Вы можете скачивать файлы