2 сезон

iTunes

MVO

1

2 сезон

iTunes

iTunes

1 сезон

RePack

30

Новинка

ВАЖНО

ИГРА 18+

pack

RePack

MK11
pack

Легкие деньги

RePack

jed

RePack

fifa19

RePack

RDR2

RePack

NEED FOR SPEED™ PAYBACK

4 сезон

9 сезон

Бесстыжие 9 сезон

Все сериалы

все сериалы на PB.wtf

RePack

FAR CRY 5

Anonymous, добрый вечер, мы не успеваем собрать деньги на оплату серверов за декабрь и январь, помогите нам пожалуйста в это трудное время. В качестве благодарности мы отключим Вам всю рекламу на сайте (укажите свой ник в строку Ваше имя)!

×
  
Magnet ссылка

Титаны / Titans / Сезон: 1 / Серии: 1-11 из 11 (Брэд Андерсон) [2018, фантастика, фэнтези, боевик, приключения, BD Remux 1080p] MVO [LostFilm] pb.wtf

Титаны через торрент pb.wtf

Размер: 83.99 GB | Добавлен: 1 год 5 мес. назад | Торрент скачан:12 раз
Скачать  

01-08-2019 19:11 Титаны Скачать торрент  

Титаны / Titans
«***»
Производство: США
Год выпуска: 2018
Жанр: фантастика, фэнтези, боевик, приключения
Продолжительность: ~ 00:50:00 серия
Премьера (мир): 7 октября 2018
Перевод: Профессиональный (многоголосый закадровый) | LostFilm
Субтитры: Eng (PGS)

Режиссёр: Брэд Андерсон, Грант Харви, Джон Фоусет

В ролях: Брентон Туэйтс, Тиган Крофт, Анна Диоп, Линдси Горт, Минка Келли, Райан Поттер, Алан Ричсон, Каррен Уолтерс, Шеймус Девер, Бруно Бичир

Описание:
В надежде остановить своего отца — древнего демона Тригона — обладательница невероятных способностей девушка Рэйвен обращается за помощью к Робину. Бывший напарник Бэтмена теперь сам вершит правосудие на улицах Готэма, но, чтобы остановить зло, Рэйвен и Робину понадобится подмога.



Качество видео: BD Remux 1080p
Формат: MKV

Видео: MPEG4, 1920 x 1080 (1.778), 23.976 fps, 17,8 Mbps
Аудио Rus: DTS-HD MA, 48 kHz, 6 ch, 2230 kbps |LostFilm|
Аудио Eng: DTS-HD MA, 48 kHz, 6 ch, 2206 kbps |Original|
Общее
Уникальный идентификатор : 84208725358443516688465189945292132337 (0x3F5A02B50532FBABD461DB9A44788FF1)
Полное имя : E:\_Сериалы\_Сериалы\Титаны\Titans.S01.BDRemux.1080p.Rus.Eng\Titans.S01E01.BDRemux.1080p.Rus.Eng.mkv
Формат : Matroska
Версия формата : Version 4
Размер файла : 7,90 Гбайт
Продолжительность : 50 м. 45 с.
Режим общего битрейта : Переменный
Общий поток : 22,3 Мбит/сек
Дата кодирования : UTC 2019-07-27 11:15:49
Программа кодирования : mkvmerge v35.0.0 ('All The Love In The World') 64-bit
Библиотека кодирования : libebml v1.3.9 + libmatroska v1.5.2

Видео
Идентификатор : 1
Формат : AVC
Формат/Информация : Advanced Video Codec
Профиль формата : High@L4.1
Настройки формата : CABAC / 4 Ref Frames
Параметр CABAC формата : Да
Параметр RefFrames формата : 4 кадра
Идентификатор кодека : V_MPEG4/ISO/AVC
Продолжительность : 50 м. 45 с.
Вид битрейта : Переменный
Битрейт : 17,8 Мбит/сек
Максимальный битрейт : 38,0 Мбит/сек
Ширина : 1920 пикселей
Высота : 1080 пикселей
Соотношение сторон : 16:9
Режим частоты кадров : Постоянный
Частота кадров : 23,976 (24000/1001) кадра/сек
Цветовое пространство : YUV
Субдискретизация насыщенности : 4:2:0
Битовая глубина : 8 бит
Тип развёртки : Прогрессивная
Бит/(Пиксели*Кадры) : 0.358
Размер потока : 6,32 Гбайт (80%)
Заголовок : Titans 1x01 (2018) - Release kogesan
Язык : English
Default : Да
Forced : Нет

Аудио #1
Идентификатор : 2
Формат : DTS XLL
Формат/Информация : Digital Theater Systems
Коммерческое название : DTS-HD Master Audio
Идентификатор кодека : A_DTS
Продолжительность : 50 м. 45 с.
Вид битрейта : Переменный
Битрейт : 2230 Кбит/сек
Каналы : 6 каналов
ChannelLayout : C L R Ls Rs LFE
Частота : 48,0 КГц
Частота кадров : 93,750 кадра/сек (512 SPF)
Битовая глубина : 16 бит
Метод сжатия : Без потерь
Размер потока : 810 Мбайт (10%)
Заголовок : LostFilm
Язык : Russian
Default : Да
Forced : Нет

Аудио #2
Идентификатор : 3
Формат : DTS XLL
Формат/Информация : Digital Theater Systems
Коммерческое название : DTS-HD Master Audio
Идентификатор кодека : A_DTS
Продолжительность : 50 м. 45 с.
Вид битрейта : Переменный
Битрейт : 2206 Кбит/сек
Каналы : 6 каналов
ChannelLayout : C L R Ls Rs LFE
Частота : 48,0 КГц
Частота кадров : 93,750 кадра/сек (512 SPF)
Битовая глубина : 16 бит
Метод сжатия : Без потерь
Размер потока : 801 Мбайт (10%)
Язык : English
Default : Нет
Forced : Нет

Текст
Идентификатор : 4
Формат : PGS
Режим смешивания : zlib
Идентификатор кодека : S_HDMV/PGS
Идентификатор кодека/Информация : Picture based subtitle format used on BDs/HD-DVDs
Продолжительность : 48 м. 33 с.
Битрейт : 21,0 Кбит/сек
ElementCount : 1032
Размер потока : 7,30 Мбайт (0%)
Язык : English
Default : Нет
Forced : Нет

Меню
00:00:00.000 : :Глава 01
00:04:39.737 : :Глава 02
00:15:19.752 : :Глава 03
00:23:57.727 : :Глава 04
00:32:54.013 : :Глава 05
00:40:32.012 : :Глава 06
00:49:06.318 : :Глава 07
Раздача ведётся путём добавления новых серий; при каждом добавлении создаётся новый торрент.
Чтобы начать докачку новой серии, пользователям необходимо сделать следующее:
1. остановить скачивание,
2. удалить старый торрент у себя из клиента (старые серии удалять не надо),
3. скачать новый торрент и запустить его у себя в клиенте вместо старого, при этом указать клиенту путь в старую папку, куда и должно происходить скачивание новых серий.

Ваш клиент при этом должен произвести хеширование (проверку) старой папки (если не производит сам - помогите ему сделать это), и будет докачивать только те серии которых у вас ещё нет. Старые серии при этом не удаляются, а продолжают раздаваться!

Eсли вы уже удалили старые серии, то предотвратить повторную закачку старых серий можно, отжав галочку в соответствующих местах при запуске нового торрента. По возможности, желательно не удалять старые серии как можно дольше, чтобы релизёр не столько продолжал раздавать старые серии, а смог сконцентрироваться на новых.

Совет для тех, кто не хочет ждать перехеширования:
Создайте ещё одну папку рядом с папкой сериала (рядом, а не в ней!!!). Каждую новую серию после удачной загрузки копируйте в новую папку так чтобы ваша основная папка всегда была пуста. Когда ваш новый торрент предложит вам закачать все файлы, выберете только последнюю. Для сидирования же укажите адрес новой папки.

Как закачать отдельный файл из торрента или докачать ранее пропущенные файлы торрента!
1. Открыть торрент
2. Снять галки с тех файлов торрента, которые мы не хотим закачивать. Оставляем только на нужных нам файлах (файле).
3. Нажать О.К.

В клиенте utorrent

Инструкция

1) Открыть торрент


2) Снять галки с тех файлов торрента, которые мы не хотим закачивать:

* либо вручную, снимая с каждого файла галку( скрин №1)
* либо, нажав кнопку "Снять метки (Select None)", сняв сразу со всех файлов(скрин №2)
№1

№2

Оставляем только на нужных нам файлах (файле).

3)Нажать О.К
Приятного просмотра!!!pb.wtf



Скачать Титаны через торрент http://i77.fastpic.ru/big/2018/1012/07/e30cca3f916da8200723d91183391a07.png Скачать фильм Титаны через торрент бесплантно в хорошем качестве Описание:В надежде остановить своего отца — древнего демона Тригона — обладательница невероятных способностей девушка Рэйвен обращается за ... 10 10 5
Торрент: Зарегистрирован [2019-08-01 19:11] · скачан: 12 раз
Статус: √ проверено
Размер: 83.99 GB
Как cкачать? Как скачать Титаны через торрент | UTorrent

% Раздел Тема Автор DL S | L
Зарубежные сериалы [ 18.63 GB ] Титаны / Titans / Сезон: 1 / Серии: 1-11 из 11 [2018 WEBRip 1080p] MVO [NewStudio] bober100 Скачать
1 | 0
Зарубежные сериалы [ 11.65 GB ] Титаны / Titans / Сезон: 1 / Серии: 1-11 из 11 [2018 WEB-DL 720p] [MVO] killermax2013 Скачать
1 | 0
Зарубежные сериалы [ 16.42 GB ] Титаны / Titans / Сезон: 1 / Серии: 1-11 из 11 [2018 WEB-DL 1080p] [MVO] killermax2013 Скачать
1 | 0
Зарубежные сериалы [ 7.69 GB ] Титаны / Titans / Сезон: 1 / Серии: 1-11 из 11 [2018 WEB-DLRip] [MVO] killermax2013 Скачать
1 | 0
Зарубежные сериалы [ 18.63 GB ] Титаны / Titans / Сезон: 1 / Серии: 1-11 из 11 [2018 WEB-DL 1080p] [MVO] killermax2013 Скачать
1 | 0
Зарубежные сериалы [ 26.75 GB ] Титаны / Titans / Сезон: 1 / Серии: 1-11 из 11 [2018 WEBRip 1080p] MVO [Lostfilm] bober100 Скачать
1 | 0
Зарубежные сериалы [ 4.15 GB ] Титаны / Titans / Сезон: 1 / Серии: 1-11 из 11 [2018 WEBRip] MVO [Lostfilm] bober100 Скачать
1 | 0

28-11-2019 20:33  

Отключить всю рекламу на сайте

    Дорогой пользователь! Огромная просьба, поблагодарите релизера, оцените раздачу и оставьте свои комментарий, если Вы скачали Титаны через торрент бесплатно! Внесите свою лепту в развитие PiratBit!
    Комментировать посты могут только пользователи прошедшие не сложную регистрацию
    Показать сообщения:    

    Титаны через торрент
    Скачать бесплатно Титаны
    Титаны скачать торрент
    Титаны смотреть онлайн
    Cкачать фильм Титаны бесплатно
    Титаны скачать торрент в хорошем качестве
    Титаны смотреть онлайн бесплатно в хорошем качестве


    Вы не можете начинать темы
    Вы не можете отвечать на сообщения
    Вы не можете редактировать свои сообщения
    Вы не можете удалять свои сообщения
    Вы не можете голосовать в опросах
    Вы не можете прикреплять файлы к сообщениям
    Вы можете скачивать файлы