Ссылка на приватное зеркало всего за 1$. Внимание количество ограничено!!!

iTunes

1+1

iTunes

мы

WEB-DL

1

iTunes

Чернобыль

iTunes

Ральф против интернета

Лицензия

ПШазам

Лицензия

Оно 2

Лицензия

30
pack

Вам бонус

ВАЖНО

!!Акция!!

Alien_RageХит недели

RePack

Resident Evil 21

ИГРА 18+

pack

RePack

jed

!!Акция!!

Alien_Rage

RePack

fifa19

RePack

Assassins Creed: Odyssey

RePack

NEED FOR SPEED™ PAYBACK

3 сезон

9 сезон

Бесстыжие 9 сезон

Все сериалы

все сериалы на PB.wtf

RePack

FAR CRY 5
Ребята, катастрофически не хватает 1900р. для оплаты серверов за Октябрь (всвязи с блокировками трафик упал в 3 раза), 1-2р., выручайте.
  

Убийца Кэйт! / Killer Kate (Эллиот Фельд) [2018, ужасы, BDRip-AVC] MVO [HDRezka Studio] - ExKinoRay pb.wtf

Убийца Кэйт! через торрент pb.wtf

Раздают: 4 [ 0 KB/s ]
Размер: 1.35 GB | Добавлен: 4 мес. 12 д. назад | Торрент скачан:40 раз
Скачать  

02-08-2019 00:59 Убийца Кэйт! Скачать торрент  

Название: Убийца Кэйт!
Оригинальное название: Killer Kate!
Год выпуска: 2018
Жанр: Ужасы
Режиссер: Эллиот Фельд
В ролях: Александра Брюэр, Даниэль Бёрджесс, Амарис Дэвидсон, Эбби Эйланд, Тиффани Шепис, Грант Лион, Роберт Донован, Брэндон Бейлс, Престон Флэгг, Эштон Джорданн Руис

Описание:
Сюжет фильма разворачивается вокруг двух сестер — Кейт и Энджи, которые не общаются с того момента, как Энджи поступила в колледж, а Кейт вынужденно осталась дома и присматривала за их больным отцом. После завершения обучения Энджи решает помириться со своей сестрой и для этого приглашает ее провести выходные в горном домике, забронированном через специальное приложение. Отлично начавшиеся выходные превращаются в дикий кошмар, когда девушки понимают, что арендовали дом у семьи убийц-любителей, и теперь им предстоит сражаться за свои жизни.


rating

Выпущено: США, Feld Films
Продолжительность: 01:20:27
Перевод: Профессиональный (многоголосый, закадровый) | HDRezka Studio

БЕЗ КАКОЙ-ЛИБО РЕКЛАМЫ!

Формат: MKV
Качество: BDRip-AVC
Видео: MPEG-4 AVC, 1024x428 (2.40:1), 23.976 fps, 1756 Kbps, 0.167 bit/pixel
Аудио #01: 48 kHz, AC3, 2.0, 192 Kbps | HDRezka | RUS |
Аудио #02: 48 kHz, AC3, 5.1, 448 Kbps | Оригинал | ENG |
General
Unique ID : 194131665314312940538471654798461380777 (0x920C6613B5E8BBE78B1AE1B4928E28A9)
Complete name : F:\Killer.Kate.2018.MVO.BDRip.AVC.ExKinoRay.mkv
Format : Matroska
Format version : Version 2
File size : 1.35 GiB
Duration : 1 h 20 min
Overall bit rate : 2 396 kb/s
Movie name : Killer Kate 2018 from ExKinoRay
Encoded date : UTC 2019-08-01 23:06:54
Writing application : mkvmerge v5.6.0 ('Kenya Kane') built on May 27 2012 16:44:04
Writing library : libebml v1.2.3 + libmatroska v1.3.0

Video
ID : 1
Format : AVC
Format/Info : Advanced Video Codec
Format profile : High@L4.1
Format settings, CABAC : Yes
Format settings, ReFrames : 11 frames
Codec ID : V_MPEG4/ISO/AVC
Duration : 1 h 20 min
Bit rate : 1 756 kb/s
Width : 1 024 pixels
Height : 428 pixels
Display aspect ratio : 2.40:1
Frame rate mode : Constant
Frame rate : 23.976 (23976/1000) FPS
Color space : YUV
Chroma subsampling : 4:2:0
Bit depth : 8 bits
Scan type : Progressive
Bits/(Pixel*Frame) : 0.167
Stream size : 983 MiB (71%)
Title : Enigma
Writing library : x264 core 152 r2851 ba24899
Encoding settings : cabac=1 / ref=11 / deblock=1:-2:-2 / analyse=0x3:0x113 / me=umh / subme=10 / psy=1 / psy_rd=1.02:0.05 / mixed_ref=1 / me_range=32 / chroma_me=1 / trellis=2 / 8x8dct=1 / cqm=0 / deadzone=21,11 / fast_pskip=0 / chroma_qp_offset=-3 / threads=12 / lookahead_threads=3 / sliced_threads=0 / nr=0 / decimate=0 / interlaced=0 / bluray_compat=0 / constrained_intra=0 / bframes=10 / b_pyramid=2 / b_adapt=2 / b_bias=0 / direct=3 / weightb=1 / open_gop=0 / weightp=2 / keyint=240 / keyint_min=23 / scenecut=40 / intra_refresh=0 / rc=2pass / mbtree=0 / bitrate=1756 / ratetol=1.0 / qcomp=0.65 / qpmin=0 / qpmax=51 / qpstep=4 / cplxblur=20.0 / qblur=0.5 / ip_ratio=1.30 / pb_ratio=1.20 / aq=3:0.80
Language : English
Default : Yes
Forced : No
Color range : Limited
Color primaries : BT.709
Transfer characteristics : BT.709
Matrix coefficients : BT.709

Audio #1
ID : 2
Format : AC-3
Format/Info : Audio Coding 3
Mode extension : CM (complete main)
Format settings, Endianness : Big
Codec ID : A_AC3
Duration : 1 h 20 min
Bit rate mode : Constant
Bit rate : 192 kb/s
Channel(s) : 2 channels
Channel positions : Front: L R
Sampling rate : 48.0 kHz
Frame rate : 31.250 FPS (1536 spf)
Compression mode : Lossy
Stream size : 111 MiB (8%)
Title : MVO (HDrezka Studio)
Language : Russian
Default : Yes
Forced : No

Audio #2
ID : 3
Format : AC-3
Format/Info : Audio Coding 3
Mode extension : CM (complete main)
Format settings, Endianness : Big
Codec ID : A_AC3
Duration : 1 h 20 min
Bit rate mode : Constant
Bit rate : 448 kb/s
Channel(s) : 6 channels
Channel positions : Front: L C R, Side: L R, LFE
Sampling rate : 48.0 kHz
Frame rate : 31.250 FPS (1536 spf)
Compression mode : Lossy
Stream size : 258 MiB (19%)
Language : English
Default : No
Forced : No

Menu
00:00:00.000 : en:00:00:00.000
00:08:59.914 : en:00:08:59.914
00:20:11.001 : en:00:20:11.001
00:30:08.974 : en:00:30:08.974
00:39:15.937 : en:00:39:15.937
00:49:37.933 : en:00:49:37.933
00:59:52.964 : en:00:59:52.964
01:09:30.917 : en:01:09:30.917
01:16:08.898 : en:01:16:08.898


Релиз от:

Автор релиза: pb.wtf



Скачать Убийца Кэйт! через торрент https://a.radikal.ru/a17/1908/5c/ed3f51413361.jpg Скачать фильм Убийца Кэйт! через торрент бесплантно в хорошем качестве Описание: Сюжет фильма разворачивается вокруг двух сестер — Кейт и Энджи, которые не общаются с того момента, как Энджи поступила в ... 10 10 3
Info! Золотая раздача, скачанное не засчитывается.
Торрент: Зарегистрирован [2019-08-02 00:59] · скачан: 40 раз
Статус: T временная
Размер: 1.35 GB
Как cкачать? Как скачать Убийца Кэйт! через торрент | qTorrent

% Раздел Тема Автор DL S | L
T Фильмы 2018 [DVDrip, WEB-DLRip, HDrip] (DUB, MVO) [ 1.43 GB ] Убийца Кэйт! / Killer Kate [2018 BDRip] MVO [HDRezka Studio] - ExKinoRay Enigma2010 Скачать
10 | 0

28-11-2019 20:33  

Отключить всю рекламу на сайте

    Дорогой пользователь! Огромная просьба, поблагодарите релизера, оцените раздачу и оставьте свои комментарий, если Вы скачали Убийца Кэйт! через торрент бесплатно! Внесите свою лепту в развитие PiratBit!
    Комментировать посты могут только пользователи прошедшие не сложную регистрацию
    Показать сообщения:    

    Убийца Кэйт! через торрент
    Скачать бесплатно Убийца Кэйт!
    Убийца Кэйт! скачать торрент
    Убийца Кэйт! смотреть онлайн
    Cкачать фильм Убийца Кэйт! бесплатно
    Убийца Кэйт! скачать торрент в хорошем качестве
    Убийца Кэйт! смотреть онлайн бесплатно в хорошем качестве


    Вы не можете начинать темы
    Вы не можете отвечать на сообщения
    Вы не можете редактировать свои сообщения
    Вы не можете удалять свои сообщения
    Вы не можете голосовать в опросах
    Вы не можете прикреплять файлы к сообщениям
    Вы можете скачивать файлы