2 сезон

iTunes

MVO

1

2 сезон

iTunes

iTunes

1 сезон

RePack

30

Новинка

ВАЖНО

ИГРА 18+

pack

RePack

MK11
pack

Легкие деньги

RePack

jed

RePack

fifa19

RePack

RDR2

RePack

NEED FOR SPEED™ PAYBACK

4 сезон

9 сезон

Бесстыжие 9 сезон

Все сериалы

все сериалы на PB.wtf

RePack

FAR CRY 5

Anonymous, доброе утро, мы не успеваем собрать деньги на оплату серверов за декабрь и январь, помогите нам пожалуйста в это трудное время. В качестве благодарности мы отключим Вам всю рекламу на сайте (укажите свой ник в строку Ваше имя)!

×
  
Magnet ссылка

Эйфория / Euphoria / Сезон: 1 / Серии: 1-8 из 8 ( Сэм Левинсон) [2019, драма, WEB-DL 720p] MVO [TVShows] pb.wtf

Эйфория через торрент pb.wtf

Размер: 15.16 GB | Добавлен: 1 год 5 мес. назад | Торрент скачан:77 раз
Скачать  

02-08-2019 04:01 Эйфория Скачать торрент  

Эйфория | Euphoria Год выпуска: 2019
Страна: США
Жанр: драма
Продолжительность: 00:54:00 мин.
Перевод: Профессиональный (многоголосый закадровый) | TVShows
Субтитры: отсутствуют

Режиссёры: Сэм Левинсон, Пиппа Бьянко, Августин Фриззелл, Дженнифер Моррисон

В ролях: Зендея, Мод Апатоу, Ангус Клауд, Эрик Дэйн, Алекса Деми, Джейкоб Элорди, Барби Феррейра, Ника Уильямс, Сторм Рейд, Хантер Шэфер, Элджи Смит, Сидни Свини

Описание: Продюсерский проект певца Дрейка с любимицей подростков Зендеей в главной роли. «Эйфория» — откровенная молодежная драма, главные герои которой постигают жизнь через наркотики, секс, травмы и социальные медиа. В центре истории — 17-летняя Ру Беннетт (Зендея), вернувшаяся в родной дом после лечения в реабилитационной клинике. Не теряя времени, она опять берется за старые привычки — наркотики и тусовки. Однако появление в городе девушки Джулс становится для Ру знаком надежды. Созданием «Эйфории» руководил автор «Нации убийц» Сэм Левинсон.



Качество: WEB-DL 720p
Формат: MKV

Видео: 1280x720 (16:9), 23.976 fps, MPEG-4 AVC ~4 300 kbps avg
Аудио#1: 48.0 kHz, AC3 Dolby Digital, 3/2 (L,C,R,l,r) + LFE ch, ~384 kbps | RUS / MVO
Аудио#2: 48.0 kHz, Enhanced Audio Coding 3, 3/2 (L,C,R,l,r) + LFE ch, ~640 kbps | ENG
скриншот  скриншот  скриншот  

Общее
Уникальный идентификатор : 89861579857836082297537080763463193279 (0x439AB5F3B32BAA03BE23D1D1882F52BF)
Полное имя : D:\Euphoria.S01.720p.TVShows\Euphoria.S01E01.720p.TVShows.mkv
Формат : Matroska
Версия формата : Version 4 / Version 2
Размер файла : 1,97 Гбайт
Продолжительность : 53 м. 36 с.
Общий поток : 5255 Кбит/сек
Дата кодирования : UTC 2019-06-23 09:22:31
Программа кодирования : mkvmerge v33.1.0 ('Primrose') 64-bit
Библиотека кодирования : libebml v1.3.7 + libmatroska v1.5.0

Видео
Идентификатор : 1
Формат : AVC
Формат/Информация : Advanced Video Codec
Профиль формата : Main@L3.1
Параметр CABAC формата : Да
Параметр RefFrames формата : 2 кадра
Параметр GOP формата : N=1
Идентификатор кодека : V_MPEG4/ISO/AVC
Продолжительность : 53 м. 36 с.
Битрейт : 4127 Кбит/сек
Ширина : 1280 пикселей
Высота : 720 пикселей
Соотношение сторон : 16:9
Режим частоты кадров : Постоянный
Частота кадров : 23,976 (24000/1001) кадра/сек
Цветовое пространство : YUV
Субдискретизация насыщенности : 4:2:0
Битовая глубина : 8 бит
Тип развёртки : Прогрессивная
Бит/(Пиксели*Кадры) : 0.187
Размер потока : 1,55 Гбайт (79%)
Default : Да
Forced : Нет

Аудио #1
Идентификатор : 2
Формат : AC-3
Формат/Информация : Audio Coding 3
Расширение режима : CM (complete main)
Параметр Endianness формата : Big
Идентификатор кодека : A_AC3
Продолжительность : 53 м. 36 с.
Вид битрейта : Постоянный
Битрейт : 384 Кбит/сек
Каналы : 6 каналов
Расположение каналов : Front: L C R, Side: L R, LFE
Частота : 48,0 КГц
Частота кадров : 31,250 кадров/сек (1536 spf)
Метод сжатия : С потерями
Задержка видео : 1 с. 0 мс.
Размер потока : 147 Мбайт (7%)
Заголовок : TVShows
Язык : Russian
Default : Да
Forced : Да

Аудио #2
Идентификатор : 3
Формат : E-AC-3
Формат/Информация : Audio Coding 3
Параметр Endianness формата : Big
Идентификатор кодека : A_EAC3
Продолжительность : 53 м. 36 с.
Вид битрейта : Постоянный
Битрейт : 640 Кбит/сек
Каналы : 6 каналов
Расположение каналов : Front: L C R, Side: L R, LFE
Частота : 48,0 КГц
Частота кадров : 187,500 кадров/сек (256 spf)
Метод сжатия : С потерями
Задержка видео : 8 мс.
Размер потока : 245 Мбайт (12%)
Заголовок : Original
Язык : English
Default : Нет
Forced : Нет

Когда раздача ведётся путём добавления новых серий, при каждом добавлении создётся новый торрент. Чтобы начать докачку новой серии, пользователям необходимо сделать следующее:
(1) остановить скачивание,
(2) удалить старый торрент у себя из клиента (старые серии удалять не надо),
(3) скачать новый торрент и запустить его у себя в клиенте вместо старого, при этом указать клиенту путь в старую папку, куда и должно происходить скачивание новых серий.
Ваш клиент при этом должен произвести хеширование (проверку) старой папки (если не производит сам - помогите ему сделать это), и будет докачивать только те серии, которых у вас ещё нет. Старые серии при этом не удаляются, а продолжают раздаваться!
Eсли вы уже удалили старые серии, то предотвратить повторную закачку старых серий можно, отжав галочку в соответсвующих местах при запуске нового торрента. По возможности, желательно не удалять старые серии как можно дольше, чтобы релизёр не столько продолжал раздавать старые серии, а смог сконцентрироваться на новых.
В сериале присутствуют откровенные сексуальные сцены! 18+pb.wtf



Скачать Эйфория через торрент https://b.radikal.ru/b18/1908/d0/64c1c43e78bd.png Скачать фильм Эйфория через торрент бесплантно в хорошем качестве Описание: Продюсерский проект певца Дрейка с любимицей подростков Зендеей в главной роли. «Эйфория» — откровенная молодежная драма, главные ... 10 10 5
Торрент: Зарегистрирован [2019-08-09 06:15] · скачан: 77 раз
Статус: √ проверено
Размер: 15.16 GB
Как cкачать? Как скачать Эйфория через торрент | UTorrent

% Раздел Тема Автор DL S | L
Зарубежные сериалы [ 3.77 GB ] Эйфория / Euphoria / Сезон: 1 / Серии: 1-8 из 8 [2019 WEB-DLRip-AVC] MVO [Novamedia] bober100 Скачать
2 | 0
Зарубежные сериалы [ 29.83 GB ] Эйфория / Euphoria / Сезон: 1 / Серии: 1-8 из 8 [2019 WEB-DL 1080p] MVO [Novamedia] bober100 Скачать
2 | 0
Зарубежные сериалы [ 6.32 GB ] Эйфория / Euphoria / Сезон: 1 / Серии: 1-8 из 8 [2019 WEB-DLRip] MVO [Novamedia] bober100 Скачать
1 | 0
Зарубежные сериалы [ 7.67 GB ] Эйфория / Euphoria / Сезон: 1 / Серии: 1-8 из 8 [2019 WEB-DLRip] [MVO] killermax2013 Скачать
1 | 0
Зарубежные сериалы [ 29.75 GB ] Эйфория / Euphoria / Сезон: 1 / Серии: 1-8 из 8 [2019 WEB-DL 1080p] [MVO] killermax2013 Скачать
1 | 0

28-11-2019 20:33  

Отключить всю рекламу на сайте

    Дорогой пользователь! Огромная просьба, поблагодарите релизера, оцените раздачу и оставьте свои комментарий, если Вы скачали Эйфория через торрент бесплатно! Внесите свою лепту в развитие PiratBit!
    Комментировать посты могут только пользователи прошедшие не сложную регистрацию
    Показать сообщения:    

    Эйфория через торрент
    Скачать бесплатно Эйфория
    Эйфория скачать торрент
    Эйфория смотреть онлайн
    Cкачать фильм Эйфория бесплатно
    Эйфория скачать торрент в хорошем качестве
    Эйфория смотреть онлайн бесплатно в хорошем качестве


    Вы не можете начинать темы
    Вы не можете отвечать на сообщения
    Вы не можете редактировать свои сообщения
    Вы не можете удалять свои сообщения
    Вы не можете голосовать в опросах
    Вы не можете прикреплять файлы к сообщениям
    Вы можете скачивать файлы