Доктор Стрэндж

Лицензия

Добыча

Дубляж

Уэнсдэй

1 сезон

Тор

Дубляж

В эфире

Дубляж

Там, где раки поют

MVO

Властелин колец

1 сезон

Deluxe

pack

Рекомендуем

30

Пиратка

ВАЖНО

ВАЖНО

Ghostwire

Пиратка

jed

RePack

nioh2

RePack

RDR2

RePack

NEED FOR SPEED™ PAYBACK

RePack

скачать торрент

Кинопоиск HD

Острые козырьки 6 сезон

6 сезон

FAR CRY 6

RePack

скачать торрент

Лицензия

скачать торрент

MVO

1

1 сезон

скачать торрент

1 сезон

скачать торрент

Лицензия

  

Так сказал Чарли / Charlie Says (Мэри Хэррон) [2018, драма, криминал, биография, BD Remux1080p] Дубляж [iTunes] +MVO [HDRezka]

Так сказал Чарли через торрент pb.wtf

Размер: 17.22 GB | Добавлен: 3 года 4 мес. назад | Торрент скачан:15 раз
Смотреть онлайн | Скачать   

02-08-2019 08:33 Так сказал Чарли Скачать торрент  

Так сказал Чарли / Charlie Says
Год выпуска: 2018
Страна: США
Жанр: драма, криминал, биография
Продолжительность: 01:50:06
Перевод:

#1: Дублированный | iTunes
#2: Профессиональный (многоголосый) | HDRezka

Субтитры: Английские

Режиссер: Мэри Хэррон

rating

В ролях: Ханна Мюррэй, Соси Бэйкон, Сьюки Уотерхаус, Аннабет Гиш, Мэтт Смит, Марианн Рендон, Мерритт Уивер, Грэйс Ван Дин, Чейс Кроуфорд, Линдсэй Фаррис

Описание: Молодой аспирант пишет работу о серии убийств, совершенных девушками из секты «Семья». Основателем этой банды был Чарльз Мэнсон, приговоренный к смертной казни. Находясь под властью преступника, обладающего гипнотической притягательностью, обычные девушки были готовы совершить любые преступления. Аспирант посещает тюрьму, где отбывают пожизненное заключение три девушки, члены секты.

Качество: BD Remux 1080p
Формат: MKV

Видео: MPEG-2 AVC, 1920x1080, 20.0 Mbit/s, 23.976 fps
Аудио#1: 48 kHz, AC3, 5.1, 384 Kbps | iTunes | RUS |
Аудио#2: 48 kHz, AC3, 2.0, 192 Kbps | HDRezka | RUS |
Аудио#3: 48 kHz, E-AC3, 5.1, 640 Kbps | Оригинал | ENG |
скриншот  скриншот  скриншот  скриншот  скриншот  

General
Unique ID : 294852553603223801496794400722596083844 (0xDDD2894579831768E2A526936B073884)
Complete name : D:Video111Charlie.Says.2018.BDREMUX.1080p.seleZen.mkv
Format : Matroska
Format version : Version 4
File size : 17.2 GiB
Duration : 1 h 50 min
Overall bit rate mode : Variable
Overall bit rate : 22.4 Mb/s
Movie name : Charlie Says 2018 from селезень
Encoded date : UTC 2019-08-02 08:04:19
Writing application : mkvmerge v22.0.0 ('At The End Of The World') 64-bit
Writing library : libebml v1.3.5 + libmatroska v1.4.8

Video
ID : 1
Format : MPEG Video
Format version : Version 2
Format profile : [email protected]
Format settings : BVOP
Format settings, BVOP : Yes
Format settings, Matrix : Default
Format settings, GOP : M=3, N=12
Codec ID : V_MPEG2
Codec ID/Info : MPEG 1 or 2 Video
Duration : 1 h 50 min
Bit rate mode : Variable
Bit rate : 20.0 Mb/s
Maximum bit rate : 40.0 Mb/s
Width : 1 920 pixels
Height : 1 080 pixels
Display aspect ratio : 16:9
Frame rate mode : Constant
Frame rate : 23.976 (24000/1001) FPS
Color space : YUV
Chroma subsampling : 4:2:0
Bit depth : 8 bits
Scan type : Progressive
Compression mode : Lossy
Bits/(Pixel*Frame) : 0.402
Time code of first frame : 00:00:00:00
Time code source : Group of pictures header
GOP, Open/Closed : Closed
Stream size : 15.4 GiB (89%)
Language : English
Default : Yes
Forced : No

Audio #1
ID : 2
Format : AC-3
Format/Info : Audio Coding 3
Commercial name : Dolby Digital
Codec ID : A_AC3
Duration : 1 h 50 min
Bit rate mode : Constant
Bit rate : 384 kb/s
Channel(s) : 6 channels
Channel layout : L R C LFE Ls Rs
Sampling rate : 48.0 kHz
Frame rate : 31.250 FPS (1536 SPF)
Bit depth : 16 bits
Compression mode : Lossy
Stream size : 302 MiB (2%)
Title : iTunes
Language : Russian
Service kind : Complete Main
Default : Yes
Forced : Yes

Audio #2
ID : 3
Format : AC-3
Format/Info : Audio Coding 3
Commercial name : Dolby Digital
Codec ID : A_AC3
Duration : 1 h 50 min
Bit rate mode : Constant
Bit rate : 192 kb/s
Channel(s) : 2 channels
Channel layout : L R
Sampling rate : 48.0 kHz
Frame rate : 31.250 FPS (1536 SPF)
Bit depth : 16 bits
Compression mode : Lossy
Stream size : 151 MiB (1%)
Title : MVO [HDRezka]
Language : Russian
Service kind : Complete Main
Default : No
Forced : No

Audio #3
ID : 4
Format : DTS XLL
Format/Info : Digital Theater Systems
Commercial name : DTS-HD Master Audio
Codec ID : A_DTS
Duration : 1 h 50 min
Bit rate mode : Variable
Bit rate : 1 801 kb/s
Channel(s) : 6 channels
Channel layout : C L R Ls Rs LFE
Sampling rate : 48.0 kHz
Frame rate : 93.750 FPS (512 SPF)
Bit depth : 16 bits
Compression mode : Lossless
Stream size : 1.38 GiB (8%)
Title : Original
Language : English
Default : No
Forced : No

Text #1
ID : 5
Format : UTF-8
Codec ID : S_TEXT/UTF8
Codec ID/Info : UTF-8 Plain Text
Duration : 1 h 47 min
Bit rate : 60 b/s
Count of elements : 1502
Stream size : 47.5 KiB (0%)
Title : Full
Language : English
Default : No
Forced : No

Text #2
ID : 6
Format : UTF-8
Codec ID : S_TEXT/UTF8
Codec ID/Info : UTF-8 Plain Text
Duration : 1 h 49 min
Bit rate : 60 b/s
Count of elements : 1612
Stream size : 49.0 KiB (0%)
Title : SDH
Language : English
Default : No
Forced : No

Menu
00:00:00.000 : en:00:00:00.000
00:07:57.477 : en:00:07:57.477
00:20:35.735 : en:00:20:35.735
00:32:52.471 : en:00:32:52.471
00:44:23.661 : en:00:44:23.661
00:57:35.953 : en:00:57:35.953
01:04:19.856 : en:01:04:19.856
01:20:12.308 : en:01:20:12.308
01:28:15.791 : en:01:28:15.791
01:38:54.429 : en:01:38:54.429




Скачать Так сказал Чарли через торрент http://img15.lostpic.net/2019/06/07/a8d172f6d8f0ab4604985892433a419b.jpg Скачать, смотреть онлайн Так сказал Чарли бесплантно в хорошем качестве Описание: Молодой аспирант пишет работу о серии убийств, совершенных девушками из секты «Семья». Основателем этой банды был Чарльз Мэнсон, ... 10 10 4
Торрент: Зарегистрирован [2019-08-02 08:33] · скачан: 15 раз
Статус: √ проверено
Размер: 17.22 GB
Как cкачать? Как скачать Так сказал Чарли через торрент | UTorrent

% Раздел Тема Автор DL S | L
T Фильмы (WEB-DL 720p, 1080p) [ 7.11 GB ] Так сказал Чарли / Charlie Says | HDRezka Studio | 1080p bober100 Скачать
1 | 0
Фильмы 2019-2020 [DVDrip, WEB-DLRip, HDrip] (DUB, MVO) [ 1.41 GB ] Так сказал Чарли / Charlie Says | iTunes | BDRip bober100 Скачать
1 | 0

28-11-2019 20:33  


Отключить вcю реклaмy на сайте, в т.ч. и в плеере онлайн просмотра!

    Дорогой пользователь! Огромная просьба, поблагодарите релизера, оцените раздачу и оставьте свои комментарий, если Вы скачали Так сказал Чарли через торрент бесплатно!!
    Комментировать посты могут только пользователи прошедшие не сложную регистрацию
    Показать сообщения:    


    Так сказал Чарли через торрент
    Скачать бесплатно Так сказал Чарли
    Так сказал Чарли скачать торрент
    Так сказал Чарли смотреть онлайн
    Cкачать фильм Так сказал Чарли бесплатно
    Так сказал Чарли скачать торрент в хорошем качестве
    Так сказал Чарли смотреть онлайн бесплатно в хорошем качестве
    Вы не можете начинать темы
    Вы не можете отвечать на сообщения
    Вы не можете редактировать свои сообщения
    Вы не можете удалять свои сообщения
    Вы не можете голосовать в опросах
    Вы не можете прикреплять файлы к сообщениям
    Вы можете скачивать файлы
    Так сказал Чарли / Charlie Says [2018, драма, криминал, биография, BD Remux1080p] Дубляж [iTunes] +MVO [HDRezka] смотреть онлайн, скачать торрент picoco.icu