новый адрес
Ссылка на приватное зеркало всего за 1$. Внимание количество ограничено!!!

iTunes

1+1

iTunes

мы

iTunes

1

iTunes

Чернобыль

iTunes

Ральф против интернета

Лицензия

ПШазам

Лицензия

Оно 2

Лицензия

30
pack

Вам бонус

ВАЖНО

!!Акция!!

Alien_RageХит недели

RePack

Resident Evil 21

ИГРА 18+

pack

RePack

jed

!!Акция!!

Alien_Rage

RePack

fifa19

RePack

Assassins Creed: Odyssey

RePack

NEED FOR SPEED™ PAYBACK

3 сезон

9 сезон

Бесстыжие 9 сезон

Все сериалы

все сериалы на PB.wtf

RePack

FAR CRY 5
Ребята, катастрофически не хватает 1900р. для оплаты серверов за Октябрь (всвязи с блокировками трафик упал в 3 раза), 1-2р., выручайте.
  

Родство / Материнство / Otherhood (Синди Чупак) [2019, комедия, WEBRip] DUB [ARC-TV Studio] pb.wtf

Родство через торрент pb.wtf

Размер: 1.46 GB | Добавлен: 4 мес. 3 д. назад | Торрент скачан:115 раз
Скачать  

02-08-2019 10:24 Родство Скачать торрент  

Родство / Материнство / Otherhood
Год выпуска: 2019
Страна: Великобритания, США
Жанр: комедия
Продолжительность: 01:40:37
Перевод: Дублированный | ARC-TV Studio
Субтитры: русские (форс. вшитые)

Режиссер: Синди Чупак

rating

В ролях: Патриша Аркетт, Беки Ньютон, Анджела Бассетт, Фелисити Хаффман, Джейк Лэси, Эфтон Уильямсон, Хайди Гарднер, Тим Бэгли, Джейк Хоффман, Молли Бернард и др.

Описание: Выздоравливая от травмы, Дженнифер остается в опасности, возвращаясь к жизни, которую она не помнит.

Качество: WEBRip
Формат: AVI

Видео: Xvid 73, 704x384, ~1616 kbps, 23,976 fps
Аудио: русский, AC3, 5.1 ch, 48 kHz, 448 kbps
скриншот  скриншот  скриншот  скриншот  скриншот  

Общее
Полное имя : E:Torrent2OtherhoodWEBRip.avi
Формат : AVI
Формат/Информация : Audio Video Interleave
Профиль формата : OpenDML
Размер файла : 1,46 Гбайт
Продолжительность : 1 ч. 40 м.
Общий поток : 2076 Кбит/сек
Программа кодирования : XviD4PSP 6.0 / 53.6.0

Видео
Идентификатор : 0
Формат : MPEG-4 Visual
Профиль формата : Advanced Simple@L5
Настройки формата : BVOP1 / Custom Matrix
Параметр BVOP формата : 1
Параметр QPel формата : Нет
Параметр GMC формата : Без точки перехода
Параметр матрицы формата : Выборочная
Идентификатор кодека : XVID
Идентификатор кодека/Подсказка : XviD
Продолжительность : 1 ч. 40 м.
Битрейт : 1616 Кбит/сек
Ширина : 704 пикселя
Высота : 384 пикселя
Соотношение сторон : 1,85:1
Частота кадров : 23,976 (23976/1000) кадра/сек
Цветовое пространство : YUV
Субдискретизация насыщенности : 4:2:0
Битовая глубина : 8 бит
Тип развёртки : Прогрессивная
Метод сжатия : С потерями
Бит/(Пиксели*Кадры) : 0.249
Размер потока : 1,14 Гбайт (78%)
Библиотека кодирования : XviD 73

Аудио
Идентификатор : 1
Формат : AC-3
Формат/Информация : Audio Coding 3
Параметр Endianness формата : Big
Идентификатор кодека : 2000
Продолжительность : 1 ч. 40 м.
Вид битрейта : Постоянный
Битрейт : 448 Кбит/сек
Каналы : 6 каналов
Расположение каналов : Front: L C R, Side: L R, LFE
Частота : 48,0 КГц
Частота кадров : 31,250 кадров/сек (1536 SPF)
Битовая глубина : 16 бит
Метод сжатия : С потерями
Размер потока : 322 Мбайт (22%)
Выравнивание : Соединение по промежуткам
Продолжительность промежутка : 32 мс. (0,77 видеокад

pb.wtf



Скачать Родство через торрент http://lostpix.com/thumbs/2019-08/02/h40a2dmce3vpmo23ujy0w97au.png Скачать фильм Родство через торрент бесплантно в хорошем качестве Описание: Выздоравливая от травмы, Дженнифер остается в опасности, возвращаясь к жизни, которую она не ... 10 10 7
Торрент: Зарегистрирован [2019-08-02 10:24] · скачан: 115 раз
Статус: √ проверено
Размер: 1.46 GB
Как cкачать? Как скачать Родство через торрент | qTorrent

% Раздел Тема Автор DL S | L
Фильмы (WEB-DL 720p, 1080p) [ 2.58 GB ] Родство / Материнство / Otherhood [2019 WEBRip 720p] DUB [ARC-TV Studio] bober100 Скачать
2 | 0
Фильмы (WEB-DL 720p, 1080p) [ 4.79 GB ] Родство / Материнство / Otherhood [2019 WEBRip 1080p] DUB [ARC-TV Studio] bober100 Скачать
1 | 0
Отключить всю рекламу на сайте
    Дорогой пользователь! Огромная просьба, поблагодарите релизера, оцените раздачу и оставьте свои комментарий, если Вы скачали Родство через торрент бесплатно! Внесите свою лепту в развитие PiratBit!
    Комментировать посты могут только пользователи прошедшие не сложную регистрацию
    Показать сообщения:    

    Родство через торрент
    Скачать бесплатно Родство
    Родство скачать торрент
    Родство смотреть онлайн
    Cкачать фильм Родство бесплатно
    Родство скачать торрент в хорошем качестве
    Родство смотреть онлайн бесплатно в хорошем качестве


    Вы не можете начинать темы
    Вы не можете отвечать на сообщения
    Вы не можете редактировать свои сообщения
    Вы не можете удалять свои сообщения
    Вы не можете голосовать в опросах
    Вы не можете прикреплять файлы к сообщениям
    Вы можете скачивать файлы