Ссылка на приватное зеркало нашего сайта всего за 1$. Внимание количество ограничено!!!

2 сезон

iTunes

1 сезон

1

2 сезон

2 сезон

iTunes

1 сезон

RePack

30

Новинка

ВАЖНО

ИГРА 18+

pack

RePack

MK11
pack

Забери бонус

RePack

jed

!!Акция!!

Alien_Rage

RePack

fifa19

RePack

Assassins Creed: Odyssey

RePack

NEED FOR SPEED™ PAYBACK

4 сезон

9 сезон

Бесстыжие 9 сезон

Все сериалы

все сериалы на PB.wtf

RePack

FAR CRY 5
  

Родство / Материнство / Otherhood (Синди Чупак) [2019, комедия, WEBRip 720p] DUB [ARC-TV Studio] pb.wtf

Родство через торрент pb.wtf

Размер: 2.58 GB | Добавлен: 1 год 3 мес. назад | Торрент скачан:42 раза
Скачать  

02-08-2019 13:59 Родство Скачать торрент  

Родство / Материнство / Otherhood
Год выпуска: 2019
Страна: Великобритания, США
Жанр: комедия
Продолжительность: 01:40:37
Перевод: Дублированный | ARC-TV Studio
Субтитры: Русские (форс., полные), английские, испанские, французские, немецкие, итальянские, португальские | Нетфликс

Режиссер: Синди Чупак

rating

В ролях: Патриша Аркетт, Беки Ньютон, Анджела Бассетт, Фелисити Хаффман, Джейк Лэси, Эфтон Уильямсон, Хайди Гарднер, Тим Бэгли, Джейк Хоффман, Молли Бернард и др.

Описание: Выздоравливая от травмы, Дженнифер остается в опасности, возвращаясь к жизни, которую она не помнит.

Качество: WEBRip 720p
Формат: MKV

Видео: MPEG-4 AVC, 2610 Kбит/с, 1280x720, 23.976 кадр/с
Аудио#1: Русский ( АС3, 6ch, 448 Кбит/с, 48.0 KHz) Профессиональный (полное дублирование) ARC-TV Studio
Аудио#2: Английский (E-АС3, 6ch, 640 Кбит/с, 48.0 KHz)
скриншот  скриншот  скриншот  скриншот  скриншот  

Источник: Otherhood.2019.720p.NF.WEBRip.DDP5.1.x264-NTG
General
Unique ID : 182985878818111801886629002492514503797 (0x89A9CC601D27CFE39022AA39B6E18C75)
Complete name : Otherhood.2019.NF.WEBRip.720p.mkv
Format : Matroska
Format version : Version 4
File size : 2.58 GiB
Duration : 1 h 40 min
Overall bit rate mode : Variable
Overall bit rate : 3 674 kb/s
Encoded date : UTC 2019-08-02 12:36:41
Writing application : mkvmerge v7.1.0 ('Good Love') 64bit built on Jul 27 2014 13:06:55
Writing library : libebml v1.3.0 + libmatroska v1.4.1

Video
ID : 1
Format : AVC
Format/Info : Advanced Video Codec
Format profile : Main@L3.1
Format settings : CABAC / 3 Ref Frames
Format settings, CABAC : Yes
Format settings, Reference fra : 3 frames
Codec ID : V_MPEG4/ISO/AVC
Duration : 1 h 40 min
Bit rate mode : Variable
Bit rate : 2 610 kb/s
Maximum bit rate : 3 915 kb/s
Width : 1 280 pixels
Height : 720 pixels
Display aspect ratio : 16:9
Frame rate mode : Constant
Frame rate : 23.976 (24000/1001) FPS
Color space : YUV
Chroma subsampling : 4:2:0
Bit depth : 8 bits
Scan type : Progressive
Bits/(Pixel*Frame) : 0.118
Stream size : 1.82 GiB (70%)
Writing library : x264 core 148 r2715 7e75228
Encoding settings : cabac=1 / ref=3 / deblock=1:0:0 / analyse=0x1:0x111 / me=umh / subme=10 / psy=1 / psy_rd=1.00:0.00 / mixed_ref=1 / me_range=24 / chroma_me=1 / trellis=2 / 8x8dct=0 / cqm=0 / deadzone=21,11 / fast_pskip=1 / chroma_qp_offset=-2 / threads=8 / lookahead_threads=1 / sliced_threads=0 / nr=0 / decimate=1 / interlaced=0 / bluray_compat=0 / stitchable=1 / constrained_intra=0 / bframes=2 / b_pyramid=0 / b_adapt=2 / b_bias=0 / direct=3 / weightb=1 / open_gop=0 / weightp=2 / keyint=250 / keyint_min=23 / scenecut=0 / intra_refresh=0 / rc_lookahead=48 / rc=2pass / mbtree=1 / bitrate=2610 / ratetol=1.0 / qcomp=0.50 / qpmin=6 / qpmax=51 / qpstep=4 / cplxblur=20.0 / qblur=0.5 / vbv_maxrate=3915 / vbv_bufsize=5220 / nal_hrd=vbr / filler=0 / ip_ratio=1.40 / aq=1:1.00
Language : English
Default : Yes
Forced : No

Audio #1
ID : 2
Format : AC-3
Format/Info : Audio Coding 3
Commercial name : Dolby Digital
Codec ID : A_AC3
Duration : 1 h 40 min
Bit rate mode : Constant
Bit rate : 448 kb/s
Channel(s) : 6 channels
Channel layout : L R C LFE Ls Rs
Sampling rate : 48.0 kHz
Frame rate : 31.250 FPS (1536 SPF)
Bit depth : 16 bits
Compression mode : Lossy
Stream size : 322 MiB (12%)
Title : DUB
Language : Russian
Service kind : Complete Main
Default : Yes
Forced : No

Audio #2
ID : 3
Format : E-AC-3
Format/Info : Enhanced AC-3
Commercial name : Dolby Digital Plus
Codec ID : A_EAC3
Duration : 1 h 40 min
Bit rate mode : Constant
Bit rate : 640 kb/s
Channel(s) : 6 channels
Channel layout : L R C LFE Ls Rs
Sampling rate : 48.0 kHz
Frame rate : 31.250 FPS (1536 SPF)
Compression mode : Lossy
Stream size : 461 MiB (17%)
Language : English
Service kind : Complete Main
Default : No
Forced : No

Text #1
ID : 4
Format : UTF-8
Codec ID : S_TEXT/UTF8
Codec ID/Info : UTF-8 Plain Text
Duration : 1 h 13 min
Bit rate : 0 b/s
Count of elements : 14
Stream size : 512 Bytes (0%)
Title : Forced
Language : Russian
Default : Yes
Forced : No

Text #2
ID : 5
Format : UTF-8
Codec ID : S_TEXT/UTF8
Codec ID/Info : UTF-8 Plain Text
Duration : 1 h 39 min
Bit rate : 110 b/s
Count of elements : 1916
Stream size : 79.9 KiB (0%)
Title : Full
Language : Russian
Default : No
Forced : No

Text #3
ID : 6
Format : UTF-8
Codec ID : S_TEXT/UTF8
Codec ID/Info : UTF-8 Plain Text
Duration : 1 h 37 min
Bit rate : 76 b/s
Count of elements : 1739
Stream size : 54.7 KiB (0%)
Language : English
Default : No
Forced : No

Text #4
ID : 7
Format : UTF-8
Codec ID : S_TEXT/UTF8
Codec ID/Info : UTF-8 Plain Text
Duration : 1 h 38 min
Bit rate : 95 b/s
Count of elements : 1893
Stream size : 68.8 KiB (0%)
Title : SDH
Language : English
Default : No
Forced : No

Text #5
ID : 8
Format : UTF-8
Codec ID : S_TEXT/UTF8
Codec ID/Info : UTF-8 Plain Text
Duration : 1 h 39 min
Bit rate : 70 b/s
Count of elements : 1619
Stream size : 51.5 KiB (0%)
Language : German
Default : No
Forced : No

Text #6
ID : 9
Format : UTF-8
Codec ID : S_TEXT/UTF8
Codec ID/Info : UTF-8 Plain Text
Duration : 1 h 39 min
Bit rate : 65 b/s
Count of elements : 1525
Stream size : 47.2 KiB (0%)
Language : French
Default : No
Forced : No

Text #7
ID : 10
Format : UTF-8
Codec ID : S_TEXT/UTF8
Codec ID/Info : UTF-8 Plain Text
Duration : 1 h 39 min
Bit rate : 69 b/s
Count of elements : 1658
Stream size : 50.4 KiB (0%)
Language : Italian
Default : No
Forced : No

Text #8
ID : 11
Format : UTF-8
Codec ID : S_TEXT/UTF8
Codec ID/Info : UTF-8 Plain Text
Duration : 1 h 39 min
Bit rate : 66 b/s
Count of elements : 1736
Stream size : 48.0 KiB (0%)
Title : European
Language : Spanish
Default : No
Forced : No

Text #9
ID : 12
Format : UTF-8
Codec ID : S_TEXT/UTF8
Codec ID/Info : UTF-8 Plain Text
Duration : 1 h 39 min
Bit rate : 75 b/s
Count of elements : 1785
Stream size : 54.7 KiB (0%)
Language : Portuguese
Default : No
Forced : No

pb.wtf



Скачать Родство через торрент http://lostpix.com/thumbs/2019-08/02/h40a2dmce3vpmo23ujy0w97au.png Скачать фильм Родство через торрент бесплантно в хорошем качестве Описание: Выздоравливая от травмы, Дженнифер остается в опасности, возвращаясь к жизни, которую она не ... 10 10 4
Торрент: Зарегистрирован [2019-08-02 13:59] · скачан: 42 раз
Статус: √ проверено
Размер: 2.58 GB
Как cкачать? Как скачать Родство через торрент | qTorrent

% Раздел Тема Автор DL S | L
Фильмы (WEB-DL 720p, 1080p) [ 4.79 GB ] Родство / Материнство / Otherhood [2019 WEBRip 1080p] DUB [ARC-TV Studio] bober100 Скачать
1 | 0
Фильмы 2019-2020 [DVDrip, WEB-DLRip, HDrip] (DUB, MVO) [ 1.46 GB ] Родство / Материнство / Otherhood [2019 WEBRip] DUB [ARC-TV Studio] bober100 Скачать
1 | 0

28-11-2019 20:33  

Отключить всю рекламу на сайте

    Дорогой пользователь! Огромная просьба, поблагодарите релизера, оцените раздачу и оставьте свои комментарий, если Вы скачали Родство через торрент бесплатно! Внесите свою лепту в развитие PiratBit!
    Комментировать посты могут только пользователи прошедшие не сложную регистрацию
    Показать сообщения:    

    Родство через торрент
    Скачать бесплатно Родство
    Родство скачать торрент
    Родство смотреть онлайн
    Cкачать фильм Родство бесплатно
    Родство скачать торрент в хорошем качестве
    Родство смотреть онлайн бесплатно в хорошем качестве


    Вы не можете начинать темы
    Вы не можете отвечать на сообщения
    Вы не можете редактировать свои сообщения
    Вы не можете удалять свои сообщения
    Вы не можете голосовать в опросах
    Вы не можете прикреплять файлы к сообщениям
    Вы можете скачивать файлы