Ссылка на приватное зеркало нашего сайта всего за 1$. Внимание количество ограничено!!!

2 сезон

iTunes

1 сезон

1

2 сезон

2 сезон

iTunes

1 сезон

RePack

30

Ultimate

ВАЖНО

ИГРА 18+

pack

RePack

MK11
pack

Забери бонус

RePack

jed

!!Акция!!

Alien_Rage

RePack

fifa19

RePack

Assassins Creed: Odyssey

RePack

NEED FOR SPEED™ PAYBACK

4 сезон

9 сезон

Бесстыжие 9 сезон

Все сериалы

все сериалы на PB.wtf

RePack

FAR CRY 5
  

Мстители: Финал / Avengers: Endgame (Энтони Руссо, Джо Руссо) [2019, фантастика, фэнтези, боевик, приключения, BD Remux 1080p] DUB [iTunes] +MVO [HDRezka Studio] pb.wtf

Мстители: Финал через торрент pb.wtf

Раздают: 1 [ 0 KB/s ]
Размер: 36.52 GB | Добавлен: 1 год 4 мес. назад | Торрент скачан:411 раз
Скачать  

03-08-2019 00:34 Мстители: Финал Скачать торрент  

Мстители: Финал / Avengers: Endgame
Год выпуска: 2019
Страна: США
Жанр: фантастика, фэнтези, боевик, приключения
Продолжительность: 03:01:11
Перевод:

Дублированный | iTunes
Профессиональный многоголосый | HDRezka Studio

Субтитры: Русские (2 x Forced, Full, SDH), английские

Режиссер: Энтони Руссо, Джо Руссо

rating

В ролях:

Роберт Дауни мл. (Tony Stark / Iron Man), Крис Эванс (Steve Rogers / Captain America), Марк Руффало (Bruce Banner / Hulk), Крис Хемсворт (Thor), Скарлетт Йоханссон (Natasha Romanoff / Black Widow), Джереми Реннер (Clint Barton / Hawkeye), Дон Чидл (James Rhodes / War Machine), Пол Радд (Scott Lang / Ant-Man), Бри Ларсон (Carol Danvers / Captain Marvel), Карен Гиллан (Nebula), Бенедикт Камбербэтч (Doctor Strange), Чедвик Боузман (T'Challa / Black Panther)
Описание: Оставшиеся в живых члены команды Мстителей и их союзники должны разработать новый план, который поможет противостоять разрушительным действиям могущественного титана Таноса. После наиболее масштабной и трагической битвы в истории они не могут допустить ошибку.

Качество: BD Remux 1080p
Формат: MKV

Видео: MPEG-4 AVC, 1920x1080, 23.2 Mbit/s, 23.976 fps
Аудио#1: 48 kHz, AC3, 5.1, 384 Kbps | iTunes | RUS |
Аудио#2: 48 kHz, AC3, 5.1, 256 Kbps | HDRezka Studio | RUS |
Аудио#3: 48 kHz, DTS-HD MA, 7.1, 5028 Kbps | Оригинал | ENG |
скриншот  скриншот  скриншот  скриншот  скриншот  

General
Unique ID : 224867381194432573158333561519551949438 (0xA92BE1DE23B5E96DF7BF58DAA77A2A7E)
Complete name : D:Video111Avengers.Endgame.2019.BDREMUX.1080p.seleZen.mkv
Format : Matroska
Format version : Version 4
File size : 36.5 GiB
Duration : 3 h 1 min
Overall bit rate mode : Variable
Overall bit rate : 28.8 Mb/s
Movie name : Avenger's Endgame 2019 from селезень
Encoded date : UTC 2019-08-02 22:27:39
Writing application : mkvmerge v22.0.0 ('At The End Of The World') 64-bit
Writing library : libebml v1.3.5 + libmatroska v1.4.8

Video
ID : 1
Format : AVC
Format/Info : Advanced Video Codec
Format profile : High@L4.1
Format settings : CABAC / 4 Ref Frames
Format settings, CABAC : Yes
Format settings, Reference : 4 frames
Codec ID : V_MPEG4/ISO/AVC
Duration : 3 h 1 min
Bit rate mode : Variable
Bit rate : 23.2 Mb/s
Maximum bit rate : 34.0 Mb/s
Width : 1 920 pixels
Height : 1 080 pixels
Display aspect ratio : 16:9
Frame rate mode : Constant
Frame rate : 23.976 (24000/1001) FPS
Color space : YUV
Chroma subsampling : 4:2:0
Bit depth : 8 bits
Scan type : Progressive
Bits/(Pixel*Frame) : 0.466
Stream size : 29.3 GiB (80%)
Language : English
Default : Yes
Forced : No

Audio #1
ID : 2
Format : AC-3
Format/Info : Audio Coding 3
Commercial name : Dolby Digital
Codec ID : A_AC3
Duration : 3 h 1 min
Bit rate mode : Constant
Bit rate : 384 kb/s
Channel(s) : 6 channels
Channel layout : L R C LFE Ls Rs
Sampling rate : 48.0 kHz
Frame rate : 31.250 FPS (1536 SPF)
Bit depth : 16 bits
Compression mode : Lossy
Stream size : 499 MiB (1%)
Title : iTunes
Language : Russian
Service kind : Complete Main
Default : Yes
Forced : Yes

Audio #2
ID : 3
Format : AC-3
Format/Info : Audio Coding 3
Commercial name : Dolby Digital
Codec ID : A_AC3
Duration : 3 h 1 min
Bit rate mode : Constant
Bit rate : 256 kb/s
Channel(s) : 2 channels
Channel layout : L R
Sampling rate : 48.0 kHz
Frame rate : 31.250 FPS (1536 SPF)
Bit depth : 16 bits
Compression mode : Lossy
Stream size : 333 MiB (1%)
Title : MVO [HDRezka Studio]
Language : Russian
Service kind : Complete Main
Default : No
Forced : No

Audio #3
ID : 4
Format : DTS XLL
Format/Info : Digital Theater Systems
Commercial name : DTS-HD Master Audio
Codec ID : A_DTS
Duration : 3 h 1 min
Bit rate mode : Variable
Bit rate : 5 028 kb/s
Channel(s) : 8 channels
Channel layout : C L R LFE Lb Rb Lss Rss
Sampling rate : 48.0 kHz
Frame rate : 93.750 FPS (512 SPF)
Bit depth : 24 bits
Compression mode : Lossless
Stream size : 6.36 GiB (17%)
Title : Original
Language : English
Default : No
Forced : No

Text #1
ID : 5
Format : UTF-8
Codec ID : S_TEXT/UTF8
Codec ID/Info : UTF-8 Plain Text
Duration : 2 h 17 min
Bit rate : 1 b/s
Count of elements : 34
Stream size : 1.14 KiB (0%)
Title : Forced (iTunes)
Language : Russian
Default : Yes
Forced : Yes

Text #2
ID : 6
Format : UTF-8
Codec ID : S_TEXT/UTF8
Codec ID/Info : UTF-8 Plain Text
Duration : 3 h 0 min
Bit rate : 78 b/s
Count of elements : 2627
Stream size : 104 KiB (0%)
Title : SDH (iTunes)
Language : Russian
Default : No
Forced : No

Text #3
ID : 7
Format : UTF-8
Codec ID : S_TEXT/UTF8
Codec ID/Info : UTF-8 Plain Text
Duration : 2 h 29 min
Bit rate : 1 b/s
Count of elements : 39
Stream size : 1.78 KiB (0%)
Title : Forced (Enigma)
Language : Russian
Default : No
Forced : No

Text #4
ID : 8
Format : UTF-8
Codec ID : S_TEXT/UTF8
Codec ID/Info : UTF-8 Plain Text
Duration : 2 h 49 min
Bit rate : 80 b/s
Count of elements : 2222
Stream size : 100 KiB (0%)
Title : Full (Ruf)
Language : Russian
Default : No
Forced : No

Text #5
ID : 9
Format : UTF-8
Codec ID : S_TEXT/UTF8
Codec ID/Info : UTF-8 Plain Text
Duration : 2 h 47 min
Bit rate : 49 b/s
Count of elements : 2329
Stream size : 61.1 KiB (0%)
Title : Full
Language : English
Default : No
Forced : No

Text #6
ID : 10
Format : UTF-8
Codec ID : S_TEXT/UTF8
Codec ID/Info : UTF-8 Plain Text
Duration : 3 h 0 min
Bit rate : 51 b/s
Count of elements : 2630
Stream size : 68.3 KiB (0%)
Title : SDH
Language : English
Default : No
Forced : No

Text #7
ID : 11
Format : UTF-8
Codec ID : S_TEXT/UTF8
Codec ID/Info : UTF-8 Plain Text
Duration : 3 h 0 min
Bit rate : 65 b/s
Count of elements : 2630
Stream size : 86.9 KiB (0%)
Title : SDH Colored
Language : English
Default : No
Forced : No

Menu
00:00:00.000 : en:00:00:00.000
00:08:05.902 : en:00:08:05.902
00:20:01.700 : en:00:20:01.700
00:26:15.282 : en:00:26:15.282
00:36:57.173 : en:00:36:57.173
00:43:20.598 : en:00:43:20.598
00:48:44.171 : en:00:48:44.171
00:57:36.745 : en:00:57:36.745
01:07:12.612 : en:01:07:12.612
01:16:02.516 : en:01:16:02.516
01:26:25.430 : en:01:26:25.430
01:32:20.118 : en:01:32:20.118
01:38:55.805 : en:01:38:55.805
01:48:12.361 : en:01:48:12.361
01:57:26.915 : en:01:57:26.915
02:05:00.243 : en:02:05:00.243
02:15:06.432 : en:02:15:06.432
02:25:50.450 : en:02:25:50.450
02:34:37.935 : en:02:34:37.935
02:43:03.899 : en:02:43:03.899
02:49:05.344 : en:02:49:05.344

pb.wtf



Скачать Мстители: Финал через торрент http://img15.lostpic.net/2019/08/01/5b6e24412acf9544e0b83a3291be52ea.jpg Скачать фильм Мстители: Финал через торрент бесплантно в хорошем качестве Описание: Оставшиеся в живых члены команды Мстителей и их союзники должны разработать новый план, который поможет противостоять ... 9.9 10 18
Info! Золотая раздача, скачанное не засчитывается.
Торрент: Зарегистрирован [2019-08-03 00:34] · скачан: 411 раз
Статус: √ проверено
Размер: 36.52 GB
Как cкачать? Как скачать Мстители: Финал через торрент | qTorrent

% Раздел Тема Автор DL S | L
Фильмы (HD 720p, 1080p) (48-60 fps) [ 6.73 GB ] Мстители: Финал / Avengers: Endgame [2019 WEB-DLRip 720p / 60 FPS ] от R.G. HD-Films slaventi-69 Скачать
4 | 0
Фильмы 2019-2020 [DVDrip, WEB-DLRip, HDrip] (DUB, MVO) [ 4 GB ] Мстители: Финал / Avengers: Endgame [2019 BDRip-AVC MVO AVO] от ExKinoRay morfyi Скачать
4 | 0
Фильмы [HD 720p, 1080p] (Хороший звук DUB, MVO) [ 8.28 GB ] Мстители: Финал / Avengers: Endgame [2019 BDRip 1080p HEVC] + MVO [HDrezka Studio] sheker187 Скачать
3 | 0
Ultra HD (UHD: 2K, 4K, 8K) — видео сверхвысокой чёткости [ 69.96 GB ] Мстители: Финал / Avengers: Endgame [2019 UHD Blu-ray 2160p] DUB [] sheker187 Скачать
2 | 0
Фильмы (HD 720p, 1080p) (48-60 fps) [ 32.13 GB ] Мстители: Финал / Avengers: Endgame [2019 BDRip 1080p 60 fps] sheker187 Скачать
1 | 0
3D Фильмы [ 17.73 GB ] Мстители: Финал в 3Д / Avengers: Endgame 3D [2019 BDRip 1080p] OverUnder / Вертикальная стереопара () serega768 Скачать
1 | 0
3D Фильмы [ 17.3 GB ] Мстители: Финал 3Д / Avengers: Endgame 3D [2019 BDRip 1080p] [Half OverUnder] DUB bober100 Скачать
4 | 0

28-11-2019 20:33  

Отключить всю рекламу на сайте

04-08-2019 08:59 Мстители: Финал Скачать торрент  

Поглядим,чем там дело кончится.pb.wtf



01-09-2019 18:57 Мстители: Финал Скачать торрент  

Весьма неплохо, посмотреть однозначно стоитpb.wtf



13-09-2019 08:46 Мстители: Финал Скачать торрент  

А дорожку то планируется менять?pb.wtf



    Дорогой пользователь! Огромная просьба, поблагодарите релизера, оцените раздачу и оставьте свои комментарий, если Вы скачали Мстители: Финал через торрент бесплатно! Внесите свою лепту в развитие PiratBit!
    Комментировать посты могут только пользователи прошедшие не сложную регистрацию
    Показать сообщения:    

    Мстители: Финал через торрент
    Скачать бесплатно Мстители: Финал
    Мстители: Финал скачать торрент
    Мстители: Финал смотреть онлайн
    Cкачать фильм Мстители: Финал бесплатно
    Мстители: Финал скачать торрент в хорошем качестве
    Мстители: Финал смотреть онлайн бесплатно в хорошем качестве


    Вы не можете начинать темы
    Вы не можете отвечать на сообщения
    Вы не можете редактировать свои сообщения
    Вы не можете удалять свои сообщения
    Вы не можете голосовать в опросах
    Вы не можете прикреплять файлы к сообщениям
    Вы можете скачивать файлы