Ссылка на приватное зеркало нашего сайта всего за 1$. Внимание количество ограничено!!!

2 сезон

iTunes

1 сезон

1

2 сезон

2 сезон

iTunes

1 сезон

RePack

30

Ultimate

ВАЖНО

ИГРА 18+

pack

RePack

MK11
pack

Забери бонус

RePack

jed

!!Акция!!

Alien_Rage

RePack

fifa19

RePack

Assassins Creed: Odyssey

RePack

NEED FOR SPEED™ PAYBACK

4 сезон

9 сезон

Бесстыжие 9 сезон

Все сериалы

все сериалы на PB.wtf

RePack

FAR CRY 5
  

Борьба с моей семьей / Fighting with My Family (Стивен Мерчант) [2019, Драма, комедия, биография, спорт, BD Remux 1080p] DUB [Лицензия] pb.wtf

Борьба с моей семьей через торрент pb.wtf

Размер: 26.45 GB | Добавлен: 1 год 3 мес. назад | Торрент скачан:37 раз
Скачать  

03-08-2019 05:37 Борьба с моей семьей Скачать торрент  

Борьба с моей семьей / Fighting with My Family
Год выпуска: 2019
Страна: Великобритания, США
Жанр: Драма, комедия, биография, спорт
Продолжительность: 01:48:28
Перевод: Дублированный | Лицензия
Субтитры: Русские (Forced, full), английские

Режиссер: Стивен Мерчант

rating

В ролях: Винс Вон, Дуэйн Джонсон, Томас Уилли, Тори Эллен Росс, Ник Фрост, Лина Хиди, Флоренс Пью, Джек Лауден, Оливия Бернстоун, Леа Фергюсон, Мохаммад Али Амири

Описание: В центре сюжета семья Бевис: бывший рестлер Патрик, его жена Джулия и их дети Зак и Сарайя. Они устраивают живые выступления на маленьких площадках, разъезжая по стране. Зак и Сарайя мечтают стать известными и попасть в международную ассоциацию рестлинга.

Качество: BDRemux 1080p
Формат: MKV

Видео: MPEG-4 AVC, 1920x1080, 30.8 Mbit/s, 23.976 fps
Аудио#1: 48 kHz, DTS, 5.1, 768 Kbps | Лицензия | RUS |
Аудио#2: 48 kHz, DTS-HD MA, 5.1, 3377 Kbps | Оригинал | ENG |
скриншот  скриншот  скриншот  скриншот  скриншот  

General
Unique ID : 339846514839449270111184300452633163684 (0xFFAC0ED551BB41C4BEA124D39D40B7A4)
Complete name : D:Video111Fighting.with.My.Family.2019.BDREMUX.1080p.seleZen.mkv
Format : Matroska
Format version : Version 4
File size : 26.5 GiB
Duration : 1 h 48 min
Overall bit rate mode : Variable
Overall bit rate : 34.9 Mb/s
Movie name : Fighting with My Family 2019 from селезень
Encoded date : UTC 2019-08-03 05:26:11
Writing application : mkvmerge v22.0.0 ('At The End Of The World') 64-bit
Writing library : libebml v1.3.5 + libmatroska v1.4.8

Video
ID : 1
Format : AVC
Format/Info : Advanced Video Codec
Format profile : High@L4.1
Format settings : CABAC / 4 Ref Frames
Format settings, CABAC : Yes
Format settings, Reference : 4 frames
Codec ID : V_MPEG4/ISO/AVC
Duration : 1 h 48 min
Bit rate mode : Variable
Bit rate : 30.8 Mb/s
Maximum bit rate : 34.0 Mb/s
Width : 1 920 pixels
Height : 1 080 pixels
Display aspect ratio : 16:9
Frame rate mode : Constant
Frame rate : 23.976 (24000/1001) FPS
Color space : YUV
Chroma subsampling : 4:2:0
Bit depth : 8 bits
Scan type : Progressive
Bits/(Pixel*Frame) : 0.619
Stream size : 23.3 GiB (88%)
Language : English
Default : Yes
Forced : No

Audio #1
ID : 2
Format : DTS
Format/Info : Digital Theater Systems
Codec ID : A_DTS
Duration : 1 h 48 min
Bit rate mode : Constant
Bit rate : 768 kb/s
Channel(s) : 6 channels
Channel layout : C L R Ls Rs LFE
Sampling rate : 48.0 kHz
Frame rate : 93.750 FPS (512 SPF)
Bit depth : 24 bits
Compression mode : Lossy
Stream size : 596 MiB (2%)
Title : Dub [License]
Language : Russian
Default : Yes
Forced : Yes

Audio #2
ID : 3
Format : DTS XLL
Format/Info : Digital Theater Systems
Commercial name : DTS-HD Master Audio
Codec ID : A_DTS
Duration : 1 h 48 min
Bit rate mode : Variable
Bit rate : 3 377 kb/s
Channel(s) : 6 channels
Channel layout : C L R Ls Rs LFE
Sampling rate : 48.0 kHz
Frame rate : 93.750 FPS (512 SPF)
Bit depth : 24 bits
Compression mode : Lossless
Stream size : 2.56 GiB (10%)
Title : Original
Language : English
Default : No
Forced : No

Text #1
ID : 4
Format : UTF-8
Codec ID : S_TEXT/UTF8
Codec ID/Info : UTF-8 Plain Text
Duration : 1 h 47 min
Bit rate : 1 b/s
Count of elements : 44
Stream size : 1.54 KiB (0%)
Title : Forced
Language : Russian
Default : Yes
Forced : Yes

Text #2
ID : 5
Format : UTF-8
Codec ID : S_TEXT/UTF8
Codec ID/Info : UTF-8 Plain Text
Duration : 1 h 47 min
Bit rate : 95 b/s
Count of elements : 1806
Stream size : 75.1 KiB (0%)
Title : Full
Language : Russian
Default : No
Forced : No

Text #3
ID : 6
Format : UTF-8
Codec ID : S_TEXT/UTF8
Codec ID/Info : UTF-8 Plain Text
Duration : 1 h 44 min
Bit rate : 85 b/s
Count of elements : 2122
Stream size : 65.5 KiB (0%)
Title : Full
Language : English
Default : No
Forced : No

Menu
00:00:00.000 : en:00:00:00.000
00:05:10.268 : en:00:05:10.268
00:09:46.252 : en:00:09:46.252
00:14:29.035 : en:00:14:29.035
00:20:55.045 : en:00:20:55.045
00:24:53.867 : en:00:24:53.867
00:29:08.372 : en:00:29:08.372
00:35:17.073 : en:00:35:17.073
00:40:51.032 : en:00:40:51.032
00:46:05.763 : en:00:46:05.763
00:50:54.718 : en:00:50:54.718
00:55:47.928 : en:00:55:47.928
01:00:41.137 : en:01:00:41.137
01:04:12.807 : en:01:04:12.807
01:11:48.513 : en:01:11:48.513
01:17:01.158 : en:01:17:01.158
01:22:00.457 : en:01:22:00.457
01:27:31.121 : en:01:27:31.121
01:35:01.404 : en:01:35:01.404
01:44:04.738 : en:01:44:04.738

pb.wtf



Скачать Борьба с моей семьей через торрент http://img14.lostpic.net/2019/05/16/d078618b222de0de5ea73e9657d0885a.jpg Скачать фильм Борьба с моей семьей через торрент бесплантно в хорошем качестве Описание: В центре сюжета семья Бевис: бывший рестлер Патрик, его жена Джулия и их дети Зак и Сарайя. Они устраивают живые выступления на ... 10 10 5
Торрент: Зарегистрирован [2019-08-03 05:37] · скачан: 37 раз
Статус: √ проверено
Размер: 26.45 GB
Как cкачать? Как скачать Борьба с моей семьей через торрент | qTorrent

% Раздел Тема Автор DL S | L
Фильмы 2019-2020 [DVDrip, WEB-DLRip, HDrip] (DUB, MVO) [ 744 MB ] Борьба с моей семьей / Fighting with My Family [2019 биография BDRip-AVC] sokol_ok Скачать
8 | 0
Фильмы 2019-2020 [DVDrip, WEB-DLRip, HDrip] (DUB, MVO) [ 1.46 GB ] Борьба с моей семьей / Fighting with My Family [2019 биография BDRip] - [] Twi7ter Скачать
14 | 1
Фильмы 2019-2020 [DVDrip, WEB-DLRip, HDrip] (DUB, MVO) [ 1.48 GB ] Борьба с моей семьей / Fighting with My Family [2019 биография BDRip-AVC] sokol_ok Скачать
8 | 0
Фильмы 2019-2020 [DVDrip, WEB-DLRip, HDrip] (DUB, MVO) [ 748 MB ] Борьба с моей семьей / Fighting with My Family [2019 биография HDRip] DUB [] bober100 Скачать
2 | 0
Фильмы [HD 720p, 1080p] (Хороший звук DUB, MVO) [ 5.2 GB ] Борьба с моей семьей / Fighting with My Family [2019 биография BDRip 720p] DUB [] bober100 Скачать
1 | 0
Фильмы [HD 720p, 1080p] (Хороший звук DUB, MVO) [ 8.99 GB ] Борьба с моей семьей / Fighting with My Family [2019 биография BDRip 1080p] DUB [] bober100 Скачать
3 | 0
Фильмы 2019-2020 [DVDrip, WEB-DLRip, HDrip] (DUB, MVO) [ 2.17 GB ] Борьба с моей семьей / Fighting with My Family [2019 биография BDRip-AVC] sokol_ok Скачать
17 | 2

28-11-2019 20:33  

Отключить всю рекламу на сайте

    Дорогой пользователь! Огромная просьба, поблагодарите релизера, оцените раздачу и оставьте свои комментарий, если Вы скачали Борьба с моей семьей через торрент бесплатно! Внесите свою лепту в развитие PiratBit!
    Комментировать посты могут только пользователи прошедшие не сложную регистрацию
    Показать сообщения:    

    Борьба с моей семьей через торрент
    Скачать бесплатно Борьба с моей семьей
    Борьба с моей семьей скачать торрент
    Борьба с моей семьей смотреть онлайн
    Cкачать фильм Борьба с моей семьей бесплатно
    Борьба с моей семьей скачать торрент в хорошем качестве
    Борьба с моей семьей смотреть онлайн бесплатно в хорошем качестве


    Вы не можете начинать темы
    Вы не можете отвечать на сообщения
    Вы не можете редактировать свои сообщения
    Вы не можете удалять свои сообщения
    Вы не можете голосовать в опросах
    Вы не можете прикреплять файлы к сообщениям
    Вы можете скачивать файлы