Всегда рабочее зеркало без VPN и Proxy просто перед .vidak.icu напиши любое слово или цифру, Пример http://eyou.vidak.icu

Лицензия

MVO

1 сезон

1

1 сезон

iTunes

1 сезон

13

1 сезон

Deluxe

pack

Рекомендуем

Repack

30

ВАЖНО

RePack

MK11

RePack

jed

RePack

fifa19

RePack

RDR2

RePack

NEED FOR SPEED™ PAYBACK

Кинопоиск HD

6 сезон

 Острые козырьки 6 сезон

Все сериалы

все сериалы на PB.wtf

RePack

FAR CRY 5
  
Magnet ссылка

Мстители: Финал / Avengers: Endgame (Энтони Руссо, Джо Руссо) [2019, фантастика, фэнтези, боевик, UHD BDRip 2160p] [SDR] DUB [iTunes] + MVO [HDRezka Studio] pb.wtf

Мстители: Финал через торрент pb.wtf

Размер: 24.22 GB | Добавлен: 3 года назад | Торрент скачан:506 раз
Смотреть онлайн Мстители: Финал | Скачать    Ребята, помогите собрать деньги на оплату серверов!!!

03-08-2019 05:55 Мстители: Финал Скачать торрент  

Мстители: Финал / Avengers: Endgame««Avenge the fallen»»

Год выпуска: 2019
Страна: США
Жанр: фантастика, фэнтези, боевик, приключения
Продолжительность: 03:01:09
Перевод: Дублированный, профессиональный многоголосый
Субтитры: Русские (2 x Forced, Full, SDH), английские
Режиссер: Энтони Руссо, Джо Руссо

В ролях:

Роберт Дауни мл. (Tony Stark / Iron Man), Крис Эванс (Steve Rogers / Captain America), Марк Руффало (Bruce Banner / Hulk), Крис Хемсворт (Thor), Скарлетт Йоханссон (Natasha Romanoff / Black Widow), Джереми Реннер (Clint Barton / Hawkeye), Дон Чидл (James Rhodes / War Machine), Пол Радд (Scott Lang / Ant-Man), Бри Ларсон (Carol Danvers / Captain Marvel), Карен Гиллан (Nebula), Бенедикт Камбербэтч (Doctor Strange), Чедвик Боузман (T'Challa / Black Panther)
Описание:
Оставшиеся в живых члены команды Мстителей и их союзники должны разработать новый план, который поможет противостоять разрушительным действиям могущественного титана Таноса. После наиболее масштабной и трагической битвы в истории они не могут допустить ошибку.
Рейтинг:

MPAA: PG-13 - Детям до 13 лет просмотр не желателен
Качество: UHD BDRip 2160p | SDR
Формат: MKV
Видео: HEVC, 17.9 Mбит/с, 3840x1608, 23.976 кадр/с, 10 Бит
Аудио: 48 kHz, AC3, 5.1, 384 Kbps | iTunes | RUS |
Аудио: 48 kHz, AC3, 2.0, 256 Kbps | HDRezka Studio | RUS |
Аудио: 48 kHz, AC3, 5.1, 640 Kbps | Оригинал | ENG |
Навигация по главам: есть

Общее
Уникальный идентификатор : 215603054441909933451104746441767044314 (0xA233A34B209AD545A8751A118C4EC4DA)
Полное имя : D:\Передел\Avengers.Endgame.2019.2160p.BDRip.x265.10bit.SDR.Master5.mkv
Формат : Matroska
Версия формата : Version 4
Размер файла : 24,2 Гбайт
Продолжительность : 3 ч. 1 м.
Общий поток : 19,1 Мбит/сек
Название фильма : Avengers.Endgame.2019.2160p.BDRip.x265.10bit.SDR.Master5
Дата кодирования : UTC 2019-08-03 04:33:58
Программа кодирования : mkvmerge v7.9.0 ('Birds') 64bit
Библиотека кодирования : libebml v1.3.1 + libmatroska v1.4.2
Обложка : Yes
Attachments : small_cover.jpg / small_cover_land.jpg / cover.jpg / cover_land.jpg

Видео
Идентификатор : 1
Формат : HEVC
Формат/Информация : High Efficiency Video Coding
Профиль формата : Main [email protected]@High
Идентификатор кодека : V_MPEGH/ISO/HEVC
Продолжительность : 3 ч. 1 м.
Битрейт : 17,9 Мбит/сек
Ширина : 3840 пикселей
Высота : 1608 пикселей
Соотношение сторон : 2,40:1
Режим частоты кадров : Постоянный
Частота кадров : 23,976 (24000/1001) кадра/сек
Цветовое пространство : YUV
Субдискретизация насыщенности : 4:2:0
Битовая глубина : 10 бит
Бит/(Пиксели*Кадры) : 0.121
Размер потока : 22,6 Гбайт (93%)
Заголовок : Avengers.Endgame.2019.2160p.BDRip.x265.10bit.SDR.Master5
Библиотека кодирования : x265 3.0+1-ed72af837053:[Windows][GCC 8.2.0][64 bit] 10bit
Настройки программы : cpuid=1111039 / frame-threads=16 / numa-pools=44,44 / wpp / no-pmode / no-pme / no-psnr / no-ssim / log-level=2 / input-csp=1 / input-res=3840x1608 / interlace=0 / total-frames=260656 / level-idc=51 / high-tier=1 / uhd-bd=0 / ref=3 / no-allow-non-conformance / repeat-headers / annexb / aud / hrd / info / hash=0 / no-temporal-layers / no-open-gop / min-keyint=1 / keyint=24 / gop-lookahead=0 / bframes=4 / b-adapt=2 / b-pyramid / bframe-bias=0 / rc-lookahead=25 / lookahead-slices=4 / scenecut=40 / radl=0 / no-splice / no-intra-refresh / ctu=64 / min-cu-size=8 / no-rect / no-amp / max-tu-size=32 / tu-inter-depth=1 / tu-intra-depth=1 / limit-tu=0 / rdoq-level=0 / dynamic-rd=0.00 / no-ssim-rd / signhide / no-tskip / nr-intra=0 / nr-inter=0 / no-constrained-intra / strong-intra-smoothing / max-merge=2 / limit-refs=3 / no-limit-modes / me=1 / subme=2 / merange=57 / temporal-mvp / weightp / no-weightb / no-analyze-src-pics / deblock=0:0 / no-sao / no-sao-non-deblock / rd=3 / no-early-skip / rskip / no-fast-intra / no-tskip-fast / no-cu-lossless / no-b-intra / no-splitrd-skip / rdpenalty=0 / psy-rd=2.00 / psy-rdoq=0.00 / no-rd-refine / no-lossless / cbqpoffs=0 / crqpoffs=0 / rc=crf / crf=16.0 / qcomp=0.60 / qpstep=4 / stats-write=0 / stats-read=0 / vbv-maxrate=160000 / vbv-bufsize=160000 / vbv-init=0.9 / crf-max=0.0 / crf-min=0.0 / ipratio=1.40 / pbratio=1.30 / aq-mode=1 / aq-strength=1.00 / cutree / zone-count=0 / no-strict-cbr / qg-size=32 / no-rc-grain / qpmax=69 / qpmin=0 / no-const-vbv / sar=1 / overscan=0 / videoformat=5 / range=0 / colorprim=2 / transfer=2 / colormatrix=2 / chromaloc=0 / display-window=0 / max-cll=0,0 / min-luma=0 / max-luma=1023 / log2-max-poc-lsb=8 / vui-timing-info / vui-hrd-info / slices=1 / opt-qp-pps / opt-ref-list-length-pps / no-multi-pass-opt-rps / scenecut-bias=0.05 / no-opt-cu-delta-qp / no-aq-motion / no-hdr / no-hdr-opt / no-dhdr10-opt / no-idr-recovery-sei / analysis-reuse-level=5 / scale-factor=0 / refine-intra=0 / refine-inter=0 / refine-mv=0 / refine-ctu-distortion=0 / no-limit-sao / ctu-info=0 / no-lowpass-dct / refine-analysis-type=0 / copy-pic=1 / max-ausize-factor=1.0 / no-dynamic-refine / no-single-sei / no-hevc-aq / qp-adaptation-range=1.00
Default : Да
Forced : Нет

Аудио #1
Идентификатор : 2
Формат : AC-3
Формат/Информация : Audio Coding 3
Коммерческое название : Dolby Digital
Идентификатор кодека : A_AC3
Продолжительность : 3 ч. 1 м.
Вид битрейта : Постоянный
Битрейт : 384 Кбит/сек
Каналы : 6 каналов
Channel layout : L R C LFE Ls Rs
Частота : 48,0 КГц
Частота кадров : 31,250 кадров/сек (1536 SPF)
Битовая глубина : 16 бит
Метод сжатия : С потерями
Размер потока : 499 Мбайт (2%)
Заголовок : iTunes
Язык : Russian
ServiceKind/String : Complete Main
Default : Да
Forced : Да

Аудио #2
Идентификатор : 3
Формат : AC-3
Формат/Информация : Audio Coding 3
Коммерческое название : Dolby Digital
Идентификатор кодека : A_AC3
Продолжительность : 3 ч. 1 м.
Вид битрейта : Постоянный
Битрейт : 256 Кбит/сек
Каналы : 2 канала
Channel layout : L R
Частота : 48,0 КГц
Частота кадров : 31,250 кадров/сек (1536 SPF)
Битовая глубина : 16 бит
Метод сжатия : С потерями
Размер потока : 333 Мбайт (1%)
Заголовок : MVO HDRezka Studio
Язык : Russian
ServiceKind/String : Complete Main
Default : Нет
Forced : Нет

Аудио #3
Идентификатор : 4
Формат : AC-3
Формат/Информация : Audio Coding 3
Коммерческое название : Dolby Digital
Идентификатор кодека : A_AC3
Продолжительность : 3 ч. 1 м.
Вид битрейта : Постоянный
Битрейт : 640 Кбит/сек
Каналы : 6 каналов
Channel layout : L R C LFE Ls Rs
Частота : 48,0 КГц
Частота кадров : 31,250 кадров/сек (1536 SPF)
Битовая глубина : 16 бит
Метод сжатия : С потерями
Размер потока : 829 Мбайт (3%)
Заголовок : Original
Язык : English
ServiceKind/String : Complete Main
Default : Нет
Forced : Нет

Текст #1
Идентификатор : 5
Формат : UTF-8
Идентификатор кодека : S_TEXT/UTF8
Идентификатор кодека/Информация : UTF-8 Plain Text
Продолжительность : 2 ч. 17 м.
Битрейт : 1 бит/сек
ElementCount : 34
Размер потока : 1,14 Кбайт (0%)
Заголовок : Forced (iTunes)
Язык : Russian
Default : Да
Forced : Да

Текст #2
Идентификатор : 6
Формат : UTF-8
Идентификатор кодека : S_TEXT/UTF8
Идентификатор кодека/Информация : UTF-8 Plain Text
Продолжительность : 3 ч. 0 м.
Битрейт : 78 бит/сек
ElementCount : 2627
Размер потока : 104 Кбайт (0%)
Заголовок : SDH (iTunes)
Язык : Russian
Default : Нет
Forced : Нет

Текст #3
Идентификатор : 7
Формат : UTF-8
Идентификатор кодека : S_TEXT/UTF8
Идентификатор кодека/Информация : UTF-8 Plain Text
Продолжительность : 2 ч. 29 м.
Битрейт : 1 бит/сек
ElementCount : 39
Размер потока : 1,78 Кбайт (0%)
Заголовок : Forced (Enigma)
Язык : Russian
Default : Нет
Forced : Нет

Текст #4
Идентификатор : 8
Формат : UTF-8
Идентификатор кодека : S_TEXT/UTF8
Идентификатор кодека/Информация : UTF-8 Plain Text
Продолжительность : 2 ч. 49 м.
Битрейт : 80 бит/сек
ElementCount : 2222
Размер потока : 100 Кбайт (0%)
Заголовок : Full (Ruf)
Язык : Russian
Default : Нет
Forced : Нет

Текст #5
Идентификатор : 9
Формат : UTF-8
Идентификатор кодека : S_TEXT/UTF8
Идентификатор кодека/Информация : UTF-8 Plain Text
Продолжительность : 2 ч. 47 м.
Битрейт : 49 бит/сек
ElementCount : 2329
Размер потока : 61,1 Кбайт (0%)
Заголовок : Full
Язык : English
Default : Нет
Forced : Нет

Текст #6
Идентификатор : 10
Формат : UTF-8
Идентификатор кодека : S_TEXT/UTF8
Идентификатор кодека/Информация : UTF-8 Plain Text
Продолжительность : 3 ч. 0 м.
Битрейт : 51 бит/сек
ElementCount : 2630
Размер потока : 68,3 Кбайт (0%)
Заголовок : SDH
Язык : English
Default : Нет
Forced : Нет

Текст #7
Идентификатор : 11
Формат : UTF-8
Идентификатор кодека : S_TEXT/UTF8
Идентификатор кодека/Информация : UTF-8 Plain Text
Продолжительность : 3 ч. 0 м.
Битрейт : 65 бит/сек
ElementCount : 2630
Размер потока : 86,9 Кбайт (0%)
Заголовок : SDH Colored
Язык : English
Default : Нет
Forced : Нет

Меню
00:00:00.000 : en:Chapter 01
00:08:05.902 : en:Chapter 02
00:20:01.700 : en:Chapter 03
00:26:15.282 : en:Chapter 04
00:36:57.173 : en:Chapter 05
00:43:20.598 : en:Chapter 06
00:48:44.171 : en:Chapter 07
00:57:36.745 : en:Chapter 08
01:07:12.612 : en:Chapter 09
01:16:02.516 : en:Chapter 10
01:26:25.430 : en:Chapter 11
01:32:20.118 : en:Chapter 12
01:38:55.805 : en:Chapter 13
01:48:12.361 : en:Chapter 14
01:57:26.915 : en:Chapter 15
02:05:00.243 : en:Chapter 16
02:15:06.432 : en:Chapter 17
02:25:50.450 : en:Chapter 18
02:34:37.935 : en:Chapter 19
02:43:03.899 : en:Chapter 20
02:49:05.344 : en:Chapter 21
pb.wtf



Скачать Мстители: Финал через торрент https://d.radikal.ru/d29/1908/92/7d3f76d14bc7.png Скачать, смотреть онлайн Мстители: Финал бесплантно в хорошем качестве Описание: Оставшиеся в живых члены команды Мстителей и их союзники должны разработать новый план, который поможет противостоять ... 10 10 10
Info! Золотая раздача, скачанное не засчитывается.
Торрент: Зарегистрирован [2019-08-03 05:55] · скачан: 506 раз
Статус: √ проверено
Размер: 24.22 GB
Как cкачать? Как скачать Мстители: Финал через торрент | UTorrent

% Раздел Тема Автор DL S | L
3D Фильмы [ 11.87 GB ] Мстители: Финал в 3D / Avengers: Endgame 3D [2019 3D BDRip 1080p ] Анаглиф от R.G. HD-Films slaventi-69 Скачать
2 | 0
Фильмы (HD 720p, 1080p) (48-60 fps) [ 32.13 GB ] Мстители: Финал / Avengers: Endgame [2019 BDRip 1080p 60 fps] sheker187 Скачать
1 | 0
3D Фильмы [ 17.73 GB ] Мстители: Финал в 3Д / Avengers: Endgame 3D [2019 BDRip 1080p] OverUnder / Вертикальная стереопара () serega768 Скачать
1 | 0
Фильмы (HD 720p, 1080p) (48-60 fps) [ 6.73 GB ] Мстители: Финал / Avengers: Endgame [2019 WEB-DLRip 720p / 60 FPS ] от R.G. HD-Films slaventi-69 Скачать
4 | 0
Фильмы 2019-2020 [DVDrip, WEB-DLRip, HDrip] (DUB, MVO) [ 4 GB ] Мстители: Финал / Avengers: Endgame [2019 BDRip-AVC MVO AVO] от ExKinoRay morfyi Скачать
1 | 1
Фильмы [HD 720p, 1080p] (Хороший звук DUB, MVO) [ 8.28 GB ] Мстители: Финал / Avengers: Endgame [2019 BDRip 1080p HEVC] + MVO [HDrezka Studio] sheker187 Скачать
3 | 0
Фильмы (Blu-ray, BD-Remux, HDDVD) [ 36.52 GB ] Мстители: Финал / Avengers: Endgame [2019 BD Remux 1080p] +MVO [HDRezka Studio] bober100 Скачать
2 | 0

28-11-2019 20:33  

Отключить вcю реклaмy на сайте

    Дорогой пользователь! Огромная просьба, поблагодарите релизера, оцените раздачу и оставьте свои комментарий, если Вы скачали Мстители: Финал через торрент бесплатно!
    Комментировать посты могут только пользователи прошедшие не сложную регистрацию
    Показать сообщения:    

    Мстители: Финал через торрент
    Скачать бесплатно Мстители: Финал
    Мстители: Финал скачать торрент
    Мстители: Финал смотреть онлайн
    Cкачать фильм Мстители: Финал бесплатно
    Мстители: Финал скачать торрент в хорошем качестве
    Мстители: Финал смотреть онлайн бесплатно в хорошем качестве


    Вы не можете начинать темы
    Вы не можете отвечать на сообщения
    Вы не можете редактировать свои сообщения
    Вы не можете удалять свои сообщения
    Вы не можете голосовать в опросах
    Вы не можете прикреплять файлы к сообщениям
    Вы можете скачивать файлы