2 сезон

iTunes

1 сезон

1

iTunes

iTunes

iTunes

1 сезон

RePack

30

ИГРА 18+

pack

ВАЖНО

!!Акция!!

Alien_RageХит недели

RePack

MK11
pack

Забери бонус

RePack

jed

!!Акция!!

Alien_Rage

RePack

fifa19

RePack

Assassins Creed: Odyssey

RePack

NEED FOR SPEED™ PAYBACK

4 сезон

9 сезон

Бесстыжие 9 сезон

Все сериалы

все сериалы на PB.wtf

RePack

FAR CRY 5
  

Дознаватель / Сезон: 1-2 / Серии: 1-56 из 56 (Андрей Коршунов, Михаил Макаренко, Игорь Москвитин) [2010-2014, детектив, криминал, WEBRip-AVC] pb.wtf

Дознаватель через торрент pb.wtf

Размер: 32.21 GB | Добавлен: 1 год 2 мес. назад | Торрент скачан:49 раз
Скачать  

03-08-2019 06:50 Дознаватель Скачать торрент  

Дознаватель
Год выпуска: 2010-2014
Страна: Россия
Жанр: детектив, криминал
Продолжительность: ~ 00:45:00 серия
Перевод: Не требуется
Субтитры: отсутствуют

Режиссер: Андрей Коршунов, Михаил Макаренко, Игорь Москвитин



В ролях: Яков Шамшин, Кирилл Полухин, Вячеслав Аркунов, Иван Васильев, Егор Бакулин, Артур Мкртчян, Николай Смирнов (III), Вероника Дмитриева, Игорь Маслобойников, Андрей Коршунов, Роман Павлушев, Алексей Байдаков, Антон Пулит, Мария Мясникова, Ирина Колганова, Константин Стрелков, Владимир Шагин, Елена Бояршинова, Иван Батарев, Алексей Алфеев, Геннадий Голубев, Александр Габов, Александр Чернов (V), Василий Шевцов, Александр Кудренко, Максим Кузнецов, Дмитрий Александров (II), Михаил Бракоренко, Игорь Николаев, Александр Черкашин, Александра Кузнецова (III), Алёна Каримская, Алексей Белозерцев, Игорь Лепихин, Анатолий Ильченко, Виталий Кононов, Максим Агалов, Станислав Чернов, Владимир Ермилов, Аделина Любская, Евгений Булычёв, Роман Жилкин, Виталий Крылов, Валерия Шкирандо, Антон Багмет, Павел Харизанов, Валерий Чебурканов, Александр Саюталин, Евгений Антонов, Александр Носов, Игорь Колосов, Юрий Филиппов (II), Нона Трояновская, Алексей Федькин, Михаил Сидаш, Иван Купреенко, Владимир Бирюков, Руслан Мещанов, Сергей Уманов, Виталий Пичик, Андрей Исаев, Александр Кладько, Александр Демич (II), Геша Меньшиков, Максим Сергеев, Ромуальд Макаренко, Андрей Бабенко, Виталий Куклин, Елизавета Александрова, Полина Толстун

Описание:

Дознаватель: Сериал рассказывает о работе следовательской группы РУВД, занимающейся раскрытием самых разнообразных преступлений - как на "земле", вместе с операми, так и в "высших сферах" бизнеса. Главный герой, Александр Суворов, выпускник юридического факультета Университета (окончил после службы в армии) приходит работать дознавателем в РУВД. Александра воспринимают с иронией: он молод, "зелен", в РУВД работают опытные "волки" - опера и следователи, начальник - 50-летний полковник Осокин кажется грубым и жестким человеком.

Дознаватель-2: Главный герой Александр Суворов продолжает работать дознавателем в одном из городских РУВД, придерживаясь принципа, что «простых преступлений не бывает». Именно поэтому Суворов вместо того, чтобы заниматься вроде бы простой кабинетной работой, вечно сует свой нос куда не надо, выходя за рамки своих полномочий. Ему всегда надо докопаться до истины, полностью разобраться в ситуации. Поэтому нет ничего удивительного, что Суворов вместе с друзьями вечно влипает в опасные криминальные ситуации, тем не менее, всегда выходя из них победителем. Суворов, Мелкумян и Кухарьков стали капитанами, Марина стала майором, а вот Толю Хоменко в звании обделили, несмотря на всего его заслуги, поэтому он обижен на коллег и всячески это подчеркивает. В Санкт-Петербург из Москвы возвращаются родители Суворова. В Москве отец Саши занимал серьезный пост в правительстве, а в Питер переведен, что называется, «на усиление». Теперь он работает в администрации города. У Суворова непростые отношения с отцом. Тот не понимает, почему сын работает простым дознавателем, ведь с его помощью он мог бы шагнуть гораздо выше!

Качество: WEBRip-AVC
Формат: MKV

Видео: MPEG-4 (AVC), 720x400@740x400, 720x400@730x400, 25 fps, ~ 1600 kbps, ~ 0.22 bit/pixel
Аудио: AC3, 2 ch, 192 kbps, 48.0 kHz
скриншот  скриншот  скриншот  скриншот  скриншот  
скриншот  

Общее
Уникальный идентификатор : 211375419551155566511983989793460216204 (0x9F056CCCF0021567B906ACCADF2A618C)
Полное имя : D:\Дознаватель\Дознаватель\Дознаватель (01 сер.).mkv
Формат : Matroska
Версия формата : Version 2
Размер файла : 611 Мбайт
Продолжительность : 47 м. 37 с.
Общий поток : 1794 Кбит/сек
Дата кодирования : UTC 2019-07-22 09:13:38
Программа кодирования : mkvmerge v7.8.0 ('River Man') 32bit built on Apr 3 2015 12:11:22
Библиотека кодирования : libebml v1.3.1 + libmatroska v1.4.2

Видео
Идентификатор : 1
Формат : AVC
Формат/Информация : Advanced Video Codec
Профиль формата : High@L3
Параметр CABAC формата : Да
Параметр RefFrames формата : 6 кадров
Идентификатор кодека : V_MPEG4/ISO/AVC
Продолжительность : 47 м. 37 с.
Битрейт : 1600 Кбит/сек
Ширина : 720 пикселей
Высота : 400 пикселей
Соотношение сторон : 1,85:1
Режим частоты кадров : Постоянный
Частота кадров : 25,000 кадров/сек
Цветовое пространство : YUV
Субдискретизация насыщенности : 4:2:0
Битовая глубина : 8 бит
Тип развёртки : Прогрессивная
Бит/(Пиксели*Кадры) : 0.222
Размер потока : 533 Мбайт (87%)
Библиотека кодирования : x264 core 157 r2935 545de2f
Настройки программы : cabac=1 / ref=6 / deblock=1:0:0 / analyse=0x3:0x113 / me=umh / subme=8 / psy=1 / psy_rd=1.00:0.00 / mixed_ref=1 / me_range=24 / chroma_me=1 / trellis=1 / 8x8dct=1 / cqm=0 / deadzone=21,11 / fast_pskip=1 / chroma_qp_offset=-2 / threads=4 / lookahead_threads=1 / sliced_threads=0 / nr=0 / decimate=1 / interlaced=0 / bluray_compat=0 / stitchable=1 / constrained_intra=0 / bframes=6 / b_pyramid=2 / b_adapt=1 / b_bias=0 / direct=3 / weightb=1 / open_gop=0 / weightp=2 / keyint=250 / keyint_min=25 / scenecut=40 / intra_refresh=0 / rc_lookahead=40 / rc=2pass / mbtree=1 / bitrate=1600 / ratetol=1.0 / qcomp=0.60 / qpmin=0 / qpmax=69 / qpstep=4 / cplxblur=20.0 / qblur=0.5 / ip_ratio=1.40 / aq=1:1.00
Default : Да
Forced : Нет

Аудио
Идентификатор : 2
Формат : AC-3
Формат/Информация : Audio Coding 3
Расширение режима : CM (complete main)
Параметр Endianness формата : Big
Идентификатор кодека : A_AC3
Продолжительность : 47 м. 37 с.
Вид битрейта : Постоянный
Битрейт : 192 Кбит/сек
Каналы : 2 канала
Расположение каналов : Front: L R
Частота : 48,0 КГц
Частота кадров : 31,250 кадров/сек (1536 spf)
Метод сжатия : С потерями
Размер потока : 65,4 Мбайт (11%)
Default : Да
Forced : Нет

pb.wtf



Скачать Дознаватель через торрент https://d.radikal.ru/d31/1908/18/4a0372c23f5d.jpg Скачать фильм Дознаватель через торрент бесплантно в хорошем качестве Описание: Дознаватель: Сериал рассказывает о работе следовательской группы РУВД, занимающейся раскрытием самых разнообразных преступлений - ... 10 10 3
Торрент: Зарегистрирован [2019-08-03 06:50] · скачан: 49 раз
Статус: √ проверено
Размер: 32.21 GB
Как cкачать? Как скачать Дознаватель через торрент | qTorrent

28-11-2019 20:33  

Отключить всю рекламу на сайте

    Дорогой пользователь! Огромная просьба, поблагодарите релизера, оцените раздачу и оставьте свои комментарий, если Вы скачали Дознаватель через торрент бесплатно! Внесите свою лепту в развитие PiratBit!
    Комментировать посты могут только пользователи прошедшие не сложную регистрацию
    Показать сообщения:    

    Дознаватель через торрент
    Скачать бесплатно Дознаватель
    Дознаватель скачать торрент
    Дознаватель смотреть онлайн
    Cкачать фильм Дознаватель бесплатно
    Дознаватель скачать торрент в хорошем качестве
    Дознаватель смотреть онлайн бесплатно в хорошем качестве


    Вы не можете начинать темы
    Вы не можете отвечать на сообщения
    Вы не можете редактировать свои сообщения
    Вы не можете удалять свои сообщения
    Вы не можете голосовать в опросах
    Вы не можете прикреплять файлы к сообщениям
    Вы можете скачивать файлы