новый адрес
Ссылка на приватное зеркало всего за 1$. Внимание количество ограничено!!!

iTunes

1+1

iTunes

мы

WEB-DL

1

iTunes

Чернобыль

iTunes

Ральф против интернета

Лицензия

ПШазам

Лицензия

Оно 2

Лицензия

30
pack

Вам бонус

ВАЖНО

!!Акция!!

Alien_RageХит недели

RePack

Resident Evil 21

ИГРА 18+

pack

RePack

jed

!!Акция!!

Alien_Rage

RePack

fifa19

RePack

Assassins Creed: Odyssey

RePack

NEED FOR SPEED™ PAYBACK

3 сезон

9 сезон

Бесстыжие 9 сезон

Все сериалы

все сериалы на PB.wtf

RePack

FAR CRY 5
Ребята, катастрофически не хватает 1900р. для оплаты серверов за Октябрь (всвязи с блокировками трафик упал в 3 раза), 1-2р., выручайте.
  

Ассимиляция / Assimilate (Джон Марловски) [2019, Ужасы, фантастика, триллер, BDRip-AVC] MVO [HDRezka Studio] AVO [Есарев]- ExKinoRay pb.wtf

Ассимиляция через торрент pb.wtf

Раздают: 33 [ 21 KB/s ] Качают: 2 [ 44 KB/s ]
Размер: 1.89 GB | Добавлен: 4 мес. 4 д. назад | Торрент скачан:325 раз
Скачать  

03-08-2019 14:05 Ассимиляция Скачать торрент  

Информация о фильме
Название: Ассимиляция
Оригинальное название: Assimilate
Год выхода: 2019
Жанр: Ужасы, фантастика, триллер
Режиссер: Джон Марловски
В ролях: Джоэл Кортни, Кэлам Уорси, Энди Мэтичак, Кэтрин МакНамара, Кэм Жиганде, Мэйсон МакНалти, Терри Паркс, Вито Вискузо, Дженнифер Пирс Матус, Кевин Ремингтон

Описание:
Томящиеся от скуки приятели Зак и Рэнди однажды решают заняться созданием документального веб-сериала о жизни своего небольшого городка. Однако размеренный быт местного населения настолько однообразен, что друзья начинают сомневаться в какой-либо ценности своего нового проекта. Тогда они и представить себе не могли, в центре каких загадочных событий окажутся уже совсем скоро. А началось всё с двух на первый взгляд никак не связанных межу собой вещей - появления необычных насекомых и странного поведения некоторых горожан, в одночасье переставших испытывать какие-либо эмоции.

rating

Страна: США
Студия: Boy Meets Girl Productions, Sprockefeller Pictures, Maple Island Films
Продолжительность: 01:33:36
Перевод: Профессиональный многоголосый | HDRezka Studio
Авторский (закадровый) Дмитрий Есарев

БЕЗ КАКОЙ-ЛИБО РЕКЛАМЫ!

Формат: MKV
Качество: BDRip-AVC
Видео: MPEG-4 AVC, 1024x540 (1.896:1), 23.976 fps, 1810 Kbps, 0.137 bit/pixel
Аудио #01: 48 kHz, AC3, 2.0, 192 Kbps | HDRezka | RUS |
Аудио #02: 48 kHz, AC3, 5.1, 448 Kbps | Есарев | RUS |
Аудио #03: 48 kHz, AC3, 5.1, 448 Kbps | Оригинал | ENG |
Субтитры: Русские (форс.), английские
General
Unique ID : 171541429575463261808371524457431865085 (0x810DAD76AF55C24FAF6EBD3D625896FD)
Complete name : F:\Assimilate.2019.2xRus.BDRip.AVC.ExKinoRay.mkv
Format : Matroska
Format version : Version 2
File size : 1.89 GiB
Duration : 1 h 33 min
Overall bit rate : 2 897 kb/s
Movie name : Assimilate 2019 from ExKinoRay
Encoded date : UTC 2019-08-03 13:13:20
Writing application : mkvmerge v5.6.0 ('Kenya Kane') built on May 27 2012 16:44:04
Writing library : libebml v1.2.3 + libmatroska v1.3.0

Video
ID : 1
Format : AVC
Format/Info : Advanced Video Codec
Format profile : High@L4.1
Format settings, CABAC : Yes
Format settings, ReFrames : 11 frames
Codec ID : V_MPEG4/ISO/AVC
Duration : 1 h 33 min
Bit rate : 1 810 kb/s
Width : 1 024 pixels
Height : 540 pixels
Display aspect ratio : 1.896
Frame rate mode : Constant
Frame rate : 23.976 (23976/1000) FPS
Color space : YUV
Chroma subsampling : 4:2:0
Bit depth : 8 bits
Scan type : Progressive
Bits/(Pixel*Frame) : 0.137
Stream size : 1.14 GiB (60%)
Title : Enigma
Writing library : x264 core 152 r2851 ba24899
Encoding settings : cabac=1 / ref=11 / deblock=1:-2:-2 / analyse=0x3:0x113 / me=umh / subme=10 / psy=1 / psy_rd=1.05:0.07 / mixed_ref=1 / me_range=32 / chroma_me=1 / trellis=2 / 8x8dct=1 / cqm=0 / deadzone=21,11 / fast_pskip=0 / chroma_qp_offset=-3 / threads=12 / lookahead_threads=3 / sliced_threads=0 / nr=0 / decimate=0 / interlaced=0 / bluray_compat=0 / constrained_intra=0 / bframes=12 / b_pyramid=2 / b_adapt=2 / b_bias=0 / direct=3 / weightb=1 / open_gop=0 / weightp=2 / keyint=240 / keyint_min=23 / scenecut=40 / intra_refresh=0 / rc=2pass / mbtree=0 / bitrate=1810 / ratetol=1.0 / qcomp=0.60 / qpmin=0 / qpmax=51 / qpstep=4 / cplxblur=20.0 / qblur=0.5 / ip_ratio=1.40 / pb_ratio=1.30 / aq=1:1.00
Language : English
Default : Yes
Forced : No
Color range : Limited
Color primaries : BT.709
Transfer characteristics : BT.709
Matrix coefficients : BT.709

Audio #1
ID : 2
Format : AC-3
Format/Info : Audio Coding 3
Mode extension : CM (complete main)
Format settings, Endianness : Big
Codec ID : A_AC3
Duration : 1 h 33 min
Bit rate mode : Constant
Bit rate : 192 kb/s
Channel(s) : 2 channels
Channel positions : Front: L R
Sampling rate : 48.0 kHz
Frame rate : 31.250 FPS (1536 spf)
Compression mode : Lossy
Stream size : 129 MiB (7%)
Title : MVO (HDRezka Studio)
Language : Russian
Default : Yes
Forced : No

Audio #2
ID : 3
Format : AC-3
Format/Info : Audio Coding 3
Mode extension : CM (complete main)
Format settings, Endianness : Big
Codec ID : A_AC3
Duration : 1 h 33 min
Bit rate mode : Constant
Bit rate : 448 kb/s
Channel(s) : 6 channels
Channel positions : Front: L C R, Side: L R, LFE
Sampling rate : 48.0 kHz
Frame rate : 31.250 FPS (1536 spf)
Compression mode : Lossy
Stream size : 300 MiB (15%)
Title : AVO (Yesarev)
Language : Russian
Default : No
Forced : No

Audio #3
ID : 4
Format : AC-3
Format/Info : Audio Coding 3
Mode extension : CM (complete main)
Format settings, Endianness : Big
Codec ID : A_AC3
Duration : 1 h 33 min
Bit rate mode : Constant
Bit rate : 448 kb/s
Channel(s) : 6 channels
Channel positions : Front: L C R, Side: L R, LFE
Sampling rate : 48.0 kHz
Frame rate : 31.250 FPS (1536 spf)
Compression mode : Lossy
Stream size : 300 MiB (15%)
Title : Original
Language : English
Default : No
Forced : No

Text #1
ID : 5
Format : UTF-8
Codec ID : S_TEXT/UTF8
Codec ID/Info : UTF-8 Plain Text
Title : Forced
Language : Russian
Default : Yes
Forced : No

Text #2
ID : 6
Format : UTF-8
Codec ID : S_TEXT/UTF8
Codec ID/Info : UTF-8 Plain Text
Title : Full
Language : English
Default : No
Forced : No

Text #3
ID : 7
Format : UTF-8
Codec ID : S_TEXT/UTF8
Codec ID/Info : UTF-8 Plain Text
Title : SDH
Language : English
Default : No
Forced : No

Menu
00:00:00.000 : en:00:00:00.000
00:10:15.907 : en:00:10:15.907
00:19:49.772 : en:00:19:49.772
00:29:58.547 : en:00:29:58.547
00:39:10.265 : en:00:39:10.265
00:50:36.784 : en:00:50:36.784
00:59:36.990 : en:00:59:36.990
01:10:52.957 : en:01:10:52.957
01:18:58.567 : en:01:18:58.567
01:28:37.354 : en:01:28:37.354


Релиз от:

Автор релиза: pb.wtf



Скачать Ассимиляция через торрент http://c.radikal.ru/c06/1906/81/37b66434ee80.jpg Скачать фильм Ассимиляция через торрент бесплантно в хорошем качестве Описание:Томящиеся от скуки приятели Зак и Рэнди однажды решают заняться созданием документального веб-сериала о жизни своего небольшого ... 10 10 4
Info! Золотая раздача, скачанное не засчитывается.
Торрент: Зарегистрирован [2019-08-03 14:05] · скачан: 325 раз
Статус: √ проверено
Размер: 1.89 GB
Как cкачать? Как скачать Ассимиляция через торрент | qTorrent

% Раздел Тема Автор DL S | L
Фильмы (Blu-ray, BD-Remux, HDDVD) [ 20.19 GB ] Ассимиляция / Assimilate [2019 BDRemux 1080p] MVO [HDRezka Studio] AVO [Есарев]- ExKinoRay Enigma2010 Скачать
11 | 0

28-11-2019 20:33  

Отключить всю рекламу на сайте

    Дорогой пользователь! Огромная просьба, поблагодарите релизера, оцените раздачу и оставьте свои комментарий, если Вы скачали Ассимиляция через торрент бесплатно! Внесите свою лепту в развитие PiratBit!
    Комментировать посты могут только пользователи прошедшие не сложную регистрацию
    Показать сообщения:    

    Ассимиляция через торрент
    Скачать бесплатно Ассимиляция
    Ассимиляция скачать торрент
    Ассимиляция смотреть онлайн
    Cкачать фильм Ассимиляция бесплатно
    Ассимиляция скачать торрент в хорошем качестве
    Ассимиляция смотреть онлайн бесплатно в хорошем качестве


    Вы не можете начинать темы
    Вы не можете отвечать на сообщения
    Вы не можете редактировать свои сообщения
    Вы не можете удалять свои сообщения
    Вы не можете голосовать в опросах
    Вы не можете прикреплять файлы к сообщениям
    Вы можете скачивать файлы