Ссылка на приватное зеркало нашего сайта всего за 1$. Внимание количество ограничено!!!

2 сезон

iTunes

1 сезон

1

2 сезон

2 сезон

iTunes

1 сезон

RePack

30

Новинка

ВАЖНО

ИГРА 18+

pack

RePack

MK11
pack

Забери бонус

RePack

jed

!!Акция!!

Alien_Rage

RePack

fifa19

RePack

Assassins Creed: Odyssey

RePack

NEED FOR SPEED™ PAYBACK

4 сезон

9 сезон

Бесстыжие 9 сезон

Все сериалы

все сериалы на PB.wtf

RePack

FAR CRY 5
  

Ассимиляция / Assimilate (Джон Марловски) [2019, Ужасы, фантастика, триллер, BDRemux 1080p] MVO [HDRezka Studio] AVO [Есарев]- ExKinoRay pb.wtf

Ассимиляция через торрент pb.wtf

Качают: 1 [ 0 KB/s ]
Размер: 20.19 GB | Добавлен: 1 год 3 мес. назад | Торрент скачан:77 раз
Скачать  

03-08-2019 14:36 Ассимиляция Скачать торрент  

Информация о фильме
Название: Ассимиляция
Оригинальное название: Assimilate
Год выхода: 2019
Жанр: Ужасы, фантастика, триллер
Режиссер: Джон Марловски
В ролях: Джоэл Кортни, Кэлам Уорси, Энди Мэтичак, Кэтрин МакНамара, Кэм Жиганде, Мэйсон МакНалти, Терри Паркс, Вито Вискузо, Дженнифер Пирс Матус, Кевин Ремингтон

Описание:
Томящиеся от скуки приятели Зак и Рэнди однажды решают заняться созданием документального веб-сериала о жизни своего небольшого городка. Однако размеренный быт местного населения настолько однообразен, что друзья начинают сомневаться в какой-либо ценности своего нового проекта. Тогда они и представить себе не могли, в центре каких загадочных событий окажутся уже совсем скоро. А началось всё с двух на первый взгляд никак не связанных межу собой вещей - появления необычных насекомых и странного поведения некоторых горожан, в одночасье переставших испытывать какие-либо эмоции.

rating

Страна: США
Студия: Boy Meets Girl Productions, Sprockefeller Pictures, Maple Island Films
Продолжительность: 01:33:36
Перевод: Профессиональный многоголосый | HDRezka Studio
Авторский (закадровый) Дмитрий Есарев

БЕЗ КАКОЙ-ЛИБО РЕКЛАМЫ!

Формат: MKV
Качество: BDRemux 1080p
Видео: MPEG-4 AVC, 1920x1080, 23.976 fps, 26.4 Мбит/с, 0.530 bit/pixel
Аудио #01: 48 kHz, AC3, 2.0, 192 Kbps | HDRezka | RUS |
Аудио #02: 48 kHz, AC3, 5.1, 448 Kbps | Есарев | RUS |
Аудио #03: 48 kHz, DTS-HD MA, 5.1, 3840 Kbps | Оригинал | ENG |
Субтитры: Русские (форс.), английские
General
Unique ID : 334090096555509161877836677578742147236 (0xFB57697FE80E3AD379F4E178B9A9A8A4)
Complete name : C:\Assimilate.2019.BDREMUX.1080p.MVO.AVO\Assimilate.2019.2xRus.BDREMUX.1080p.ExKinoRay.mkv
Format : Matroska
Format version : Version 4 / Version 2
File size : 20.2 GiB
Duration : 1 h 33 min
Overall bit rate : 30.9 Mb/s
Encoded date : UTC 2019-08-03 02:34:09
Writing application : mkvmerge v22.0.0 ('At The End Of The World') 64-bit
Writing library : libebml v1.3.5 + libmatroska v1.4.8

Video
ID : 1
Format : AVC
Format/Info : Advanced Video Codec
Format profile : High@L4.1
Format settings, CABAC : Yes
Format settings, ReFrames : 4 frames
Codec ID : V_MPEG4/ISO/AVC
Duration : 1 h 33 min
Bit rate mode : Constant
Bit rate : 26.4 Mb/s
Nominal bit rate : 28.0 Mb/s
Width : 1 920 pixels
Height : 1 080 pixels
Display aspect ratio : 16:9
Frame rate mode : Constant
Frame rate : 23.976 (24000/1001) FPS
Color space : YUV
Chroma subsampling : 4:2:0
Bit depth : 8 bits
Scan type : Progressive
Bits/(Pixel*Frame) : 0.530
Stream size : 17.2 GiB (85%)
Language : English
Default : Yes
Forced : No
Color range : Limited
Color primaries : BT.709
Transfer characteristics : BT.709
Matrix coefficients : BT.709

Audio #1
ID : 2
Format : AC-3
Format/Info : Audio Coding 3
Mode extension : CM (complete main)
Format settings, Endianness : Big
Codec ID : A_AC3
Duration : 1 h 33 min
Bit rate mode : Constant
Bit rate : 192 kb/s
Channel(s) : 2 channels
Channel positions : Front: L R
Sampling rate : 48.0 kHz
Frame rate : 31.250 FPS (1536 spf)
Compression mode : Lossy
Stream size : 129 MiB (1%)
Title : MVO [HDRezka Studio]
Language : Russian
Default : Yes
Forced : Yes

Audio #2
ID : 3
Format : AC-3
Format/Info : Audio Coding 3
Mode extension : CM (complete main)
Format settings, Endianness : Big
Codec ID : A_AC3
Duration : 1 h 33 min
Bit rate mode : Constant
Bit rate : 448 kb/s
Channel(s) : 6 channels
Channel positions : Front: L C R, Side: L R, LFE
Sampling rate : 48.0 kHz
Frame rate : 31.250 FPS (1536 spf)
Compression mode : Lossy
Stream size : 300 MiB (1%)
Title : AVO [Yesarev]
Language : Russian
Default : No
Forced : No

Audio #3
ID : 4
Format : DTS
Format/Info : Digital Theater Systems
Format profile : MA / Core
Mode : 16
Format settings, Endianness : Big
Codec ID : A_DTS
Duration : 1 h 33 min
Bit rate mode : Variable / Constant
Bit rate : 3 840 kb/s / 1 509 kb/s
Channel(s) : 6 channels
Channel positions : Front: L C R, Side: L R, LFE
Sampling rate : 48.0 kHz
Frame rate : 93.750 FPS (512 spf)
Bit depth : 24 bits
Compression mode : Lossless / Lossy
Stream size : 2.53 GiB (13%)
Language : English
Default : No
Forced : No

Text #1
ID : 5
Format : UTF-8
Codec ID : S_TEXT/UTF8
Codec ID/Info : UTF-8 Plain Text
Duration : 1 h 25 min
Bit rate : 2 b/s
Count of elements : 26
Stream size : 1.38 KiB (0%)
Title : Forced
Language : Russian
Default : Yes
Forced : Yes

Text #2
ID : 6
Format : UTF-8
Codec ID : S_TEXT/UTF8
Codec ID/Info : UTF-8 Plain Text
Duration : 1 h 27 min
Bit rate : 33 b/s
Count of elements : 809
Stream size : 21.3 KiB (0%)
Title : Full
Language : English
Default : No
Forced : No

Text #3
ID : 7
Format : UTF-8
Codec ID : S_TEXT/UTF8
Codec ID/Info : UTF-8 Plain Text
Duration : 1 h 33 min
Bit rate : 35 b/s
Count of elements : 960
Stream size : 24.3 KiB (0%)
Title : SDH
Language : English
Default : No
Forced : No

Menu
00:00:00.000 : en:00:00:00.000
00:10:15.907 : en:00:10:15.907
00:19:49.772 : en:00:19:49.772
00:29:58.547 : en:00:29:58.547
00:39:10.265 : en:00:39:10.265
00:50:36.784 : en:00:50:36.784
00:59:36.990 : en:00:59:36.990
01:10:52.957 : en:01:10:52.957
01:18:58.567 : en:01:18:58.567
01:28:37.354 : en:01:28:37.354


Релиз от:

Автор релиза: pb.wtf



Скачать Ассимиляция через торрент http://c.radikal.ru/c06/1906/81/37b66434ee80.jpg Скачать фильм Ассимиляция через торрент бесплантно в хорошем качестве Описание:Томящиеся от скуки приятели Зак и Рэнди однажды решают заняться созданием документального веб-сериала о жизни своего небольшого ... 10 10 3
Info! Золотая раздача, скачанное не засчитывается.
Торрент: Зарегистрирован [2019-08-03 14:36] · скачан: 77 раз
Статус: √ проверено
Размер: 20.19 GB
Как cкачать? Как скачать Ассимиляция через торрент | qTorrent

% Раздел Тема Автор DL S | L
Фильмы 2019-2020 [DVDrip, WEB-DLRip, HDrip] (DUB, MVO) [ 1.89 GB ] Ассимиляция / Assimilate [2019 BDRip-AVC] MVO [HDRezka Studio] AVO [Есарев]- ExKinoRay Enigma2010 Скачать
4 | 1

28-11-2019 20:33  

Отключить всю рекламу на сайте

    Дорогой пользователь! Огромная просьба, поблагодарите релизера, оцените раздачу и оставьте свои комментарий, если Вы скачали Ассимиляция через торрент бесплатно! Внесите свою лепту в развитие PiratBit!
    Комментировать посты могут только пользователи прошедшие не сложную регистрацию
    Показать сообщения:    

    Ассимиляция через торрент
    Скачать бесплатно Ассимиляция
    Ассимиляция скачать торрент
    Ассимиляция смотреть онлайн
    Cкачать фильм Ассимиляция бесплатно
    Ассимиляция скачать торрент в хорошем качестве
    Ассимиляция смотреть онлайн бесплатно в хорошем качестве


    Вы не можете начинать темы
    Вы не можете отвечать на сообщения
    Вы не можете редактировать свои сообщения
    Вы не можете удалять свои сообщения
    Вы не можете голосовать в опросах
    Вы не можете прикреплять файлы к сообщениям
    Вы можете скачивать файлы