Ссылка на приватное зеркало всего за 1$. Внимание количество ограничено!!!

OK

1+1

iTunes

мы

OK

1

WEB-DLRip

Джокер

Пифагор

Ведьмак / The Witcher сериал

Лицензия

ПШазам

ОК

Оно 2

iTunes

30
pack

Вам бонус

ВАЖНО

!!Акция!!

Alien_RageХит недели

RePack

Resident Evil 21

ИГРА 18+

pack

RePack

jed

!!Акция!!

Alien_Rage

RePack

fifa19

RePack

Assassins Creed: Odyssey

RePack

NEED FOR SPEED™ PAYBACK

4 сезон

9 сезон

Бесстыжие 9 сезон

Все сериалы

все сериалы на PB.wtf

RePack

FAR CRY 5
  

Борьба с моей семьей / Fighting with My Family (Стивен Мерчант) [2019, Драма, комедия, биография, спорт, BDRip 720p] DUB [Лицензия] pb.wtf

Борьба с моей семьей через торрент pb.wtf

Раздают: 5 [ 0 KB/s ]
Размер: 5.2 GB | Добавлен: 5 мес. 17 д. назад | Торрент скачан:197 раз
Скачать  

04-08-2019 03:52 Борьба с моей семьей Скачать торрент  

Борьба с моей семьей / Fighting with My Family
Год выпуска: 2019
Страна: Великобритания, США
Жанр: Драма, комедия, биография, спорт
Продолжительность: 01:48:28
Перевод: Дублированный | Лицензия
Субтитры: Русские (Forced, full), английские

Режиссер: Стивен Мерчант

rating

В ролях: Винс Вон, Дуэйн Джонсон, Томас Уилли, Тори Эллен Росс, Ник Фрост, Лина Хиди, Флоренс Пью, Джек Лауден, Оливия Бернстоун, Леа Фергюсон, Мохаммад Али Амири

Описание: В центре сюжета семья Бевис: бывший рестлер Патрик, его жена Джулия и их дети Зак и Сарайя. Они устраивают живые выступления на маленьких площадках, разъезжая по стране. Зак и Сарайя мечтают стать известными и попасть в международную ассоциацию рестлинга.

Качество: BDRip 720p
Формат: MKV

Видео: MPEG-4 AVC, 1280x536, 5000 Kbit/s, 23.976 fps
Аудио#1: 48 kHz, DTS, 5.1, 768 Kbps | Лицензия | RUS |
Аудио#2: 48 kHz, AC3, 5.1, 448 Kbps | Лицензия | RUS |
Аудио#3: 48 kHz, AC3, 5.1, 640 Kbps | Оригинал | ENG |
скриншот  скриншот  скриншот  скриншот  скриншот  

General
Unique ID : 221687762503272637831584437719517063785 (0xA6C7829013772E2F49004D9922E36A69)
Complete name : D:Video111Fighting.with.My.Family.2019.BDRip.720p.seleZen.mkv
Format : Matroska
Format version : Version 4
File size : 5.20 GiB
Duration : 1 h 48 min
Overall bit rate : 6 859 kb/s
Movie name : Fighting with My Family 2019 from селезень
Encoded date : UTC 2019-08-04 02:51:30
Writing application : mkvmerge v22.0.0 ('At The End Of The World') 64-bit
Writing library : libebml v1.3.5 + libmatroska v1.4.8

Video
ID : 1
Format : AVC
Format/Info : Advanced Video Codec
Format profile : High@L4.1
Format settings : CABAC / 12 Ref Frames
Format settings, CABAC : Yes
Format settings, Reference : 12 frames
Codec ID : V_MPEG4/ISO/AVC
Duration : 1 h 48 min
Bit rate : 5 000 kb/s
Width : 1 280 pixels
Height : 536 pixels
Display aspect ratio : 2.40:1
Frame rate mode : Constant
Frame rate : 23.976 (24000/1001) FPS
Color space : YUV
Chroma subsampling : 4:2:0
Bit depth : 8 bits
Scan type : Progressive
Bits/(Pixel*Frame) : 0.304
Stream size : 3.79 GiB (73%)
Title : seleZen
Writing library : x264 core 148 r2705kMod 3f5ed56
Encoding settings : cabac=1 / ref=12 / deblock=1:-2:-2 / analyse=0x3:0x133 / me=umh / subme=10 / psy=1 / fade_compensate=0.00 / psy_rd=1.20:0.04 / mixed_ref=1 / me_range=24 / chroma_me=1 / trellis=2 / 8x8dct=1 / cqm=0 / deadzone=21,11 / fast_pskip=0 / chroma_qp_offset=-3 / threads=12 / lookahead_threads=2 / sliced_threads=0 / nr=0 / decimate=0 / interlaced=0 / bluray_compat=0 / constrained_intra=0 / fgo=0 / bframes=8 / b_pyramid=2 / b_adapt=2 / b_bias=0 / direct=3 / weightb=1 / open_gop=0 / weightp=2 / keyint=240 / keyint_min=23 / scenecut=40 / intra_refresh=0 / rc_lookahead=50 / rc=2pass / mbtree=0 / bitrate=5000 / ratetol=1.0 / qcomp=0.60 / qpmin=0 / qpmax=51 / qpstep=4 / cplxblur=20.0 / qblur=0.5 / vbv_maxrate=50000 / vbv_bufsize=62500 / nal_hrd=none / filler=0 / ip_ratio=1.40 / pb_ratio=1.30 / aq=3:0.80
Language : English
Default : Yes
Forced : No

Audio #1
ID : 2
Format : DTS
Format/Info : Digital Theater Systems
Codec ID : A_DTS
Duration : 1 h 48 min
Bit rate mode : Constant
Bit rate : 768 kb/s
Channel(s) : 6 channels
Channel layout : C L R Ls Rs LFE
Sampling rate : 48.0 kHz
Frame rate : 93.750 FPS (512 SPF)
Bit depth : 24 bits
Compression mode : Lossy
Stream size : 596 MiB (11%)
Title : Dub [License]
Language : Russian
Default : Yes
Forced : Yes

Audio #2
ID : 3
Format : AC-3
Format/Info : Audio Coding 3
Commercial name : Dolby Digital
Codec ID : A_AC3
Duration : 1 h 48 min
Bit rate mode : Constant
Bit rate : 448 kb/s
Channel(s) : 6 channels
Channel layout : L R C LFE Ls Rs
Sampling rate : 48.0 kHz
Frame rate : 31.250 FPS (1536 SPF)
Bit depth : 16 bits
Compression mode : Lossy
Stream size : 348 MiB (7%)
Title : Dub [License]
Language : Russian
Service kind : Complete Main
Default : No
Forced : No

Audio #3
ID : 4
Format : AC-3
Format/Info : Audio Coding 3
Commercial name : Dolby Digital
Codec ID : A_AC3
Duration : 1 h 48 min
Bit rate mode : Constant
Bit rate : 640 kb/s
Channel(s) : 6 channels
Channel layout : L R C LFE Ls Rs
Sampling rate : 48.0 kHz
Frame rate : 31.250 FPS (1536 SPF)
Bit depth : 16 bits
Compression mode : Lossy
Stream size : 497 MiB (9%)
Title : Original
Language : English
Service kind : Complete Main
Default : No
Forced : No

Text #1
ID : 5
Format : UTF-8
Codec ID : S_TEXT/UTF8
Codec ID/Info : UTF-8 Plain Text
Duration : 1 h 47 min
Bit rate : 1 b/s
Count of elements : 44
Stream size : 1.54 KiB (0%)
Title : Forced
Language : Russian
Default : Yes
Forced : Yes

Text #2
ID : 6
Format : UTF-8
Codec ID : S_TEXT/UTF8
Codec ID/Info : UTF-8 Plain Text
Duration : 1 h 47 min
Bit rate : 95 b/s
Count of elements : 1806
Stream size : 75.1 KiB (0%)
Title : Full
Language : Russian
Default : No
Forced : No

Text #3
ID : 7
Format : UTF-8
Codec ID : S_TEXT/UTF8
Codec ID/Info : UTF-8 Plain Text
Duration : 1 h 44 min
Bit rate : 85 b/s
Count of elements : 2122
Stream size : 65.5 KiB (0%)
Title : Full
Language : English
Default : No
Forced : No

Menu
00:00:00.000 : en:00:00:00.000
00:05:10.268 : en:00:05:10.268
00:09:46.252 : en:00:09:46.252
00:14:29.035 : en:00:14:29.035
00:20:55.045 : en:00:20:55.045
00:24:53.867 : en:00:24:53.867
00:29:08.372 : en:00:29:08.372
00:35:17.073 : en:00:35:17.073
00:40:51.032 : en:00:40:51.032
00:46:05.763 : en:00:46:05.763
00:50:54.718 : en:00:50:54.718
00:55:47.928 : en:00:55:47.928
01:00:41.137 : en:01:00:41.137
01:04:12.807 : en:01:04:12.807
01:11:48.513 : en:01:11:48.513
01:17:01.158 : en:01:17:01.158
01:22:00.457 : en:01:22:00.457
01:27:31.121 : en:01:27:31.121
01:35:01.404 : en:01:35:01.404
01:44:04.738 : en:01:44:04.738

pb.wtf



Скачать Борьба с моей семьей через торрент http://img14.lostpic.net/2019/05/16/d078618b222de0de5ea73e9657d0885a.jpg Скачать фильм Борьба с моей семьей через торрент бесплантно в хорошем качестве Описание: В центре сюжета семья Бевис: бывший рестлер Патрик, его жена Джулия и их дети Зак и Сарайя. Они устраивают живые выступления на ... 10 10 5
Торрент: Зарегистрирован [2019-08-04 03:52] · скачан: 197 раз
Статус: √ проверено
Размер: 5.2 GB
Как cкачать? Как скачать Борьба с моей семьей через торрент | qTorrent

% Раздел Тема Автор DL S | L
Фильмы 2019-2020 [DVDrip, WEB-DLRip, HDrip] (DUB, MVO) [ 744 MB ] Борьба с моей семьей / Fighting with My Family [2019 биография BDRip-AVC] sokol_ok Скачать
34 | 1
Фильмы 2019-2020 [DVDrip, WEB-DLRip, HDrip] (DUB, MVO) [ 1.46 GB ] Борьба с моей семьей / Fighting with My Family [2019 биография BDRip] - [] Twi7ter Скачать
113 | 6
Фильмы 2019-2020 [DVDrip, WEB-DLRip, HDrip] (DUB, MVO) [ 1.48 GB ] Борьба с моей семьей / Fighting with My Family [2019 биография BDRip-AVC] sokol_ok Скачать
24 | 3
Фильмы 2019-2020 [DVDrip, WEB-DLRip, HDrip] (DUB, MVO) [ 748 MB ] Борьба с моей семьей / Fighting with My Family [2019 биография HDRip] DUB [] bober100 Скачать
2 | 0
Фильмы [HD 720p, 1080p] (Хороший звук DUB, MVO) [ 8.99 GB ] Борьба с моей семьей / Fighting with My Family [2019 биография BDRip 1080p] DUB [] bober100 Скачать
4 | 0
Фильмы 2019-2020 [DVDrip, WEB-DLRip, HDrip] (DUB, MVO) [ 2.17 GB ] Борьба с моей семьей / Fighting with My Family [2019 биография BDRip-AVC] sokol_ok Скачать
119 | 0
Фильмы 2019-2020 [DVDrip, WEB-DLRip, HDrip] (DUB, MVO) [ 2.18 GB ] Борьба с моей семьей / Fighting with My Family [2019 биография BDRip] DUB [] bober100 Скачать
1 | 0

28-11-2019 20:33  

Отключить всю рекламу на сайте

    Дорогой пользователь! Огромная просьба, поблагодарите релизера, оцените раздачу и оставьте свои комментарий, если Вы скачали Борьба с моей семьей через торрент бесплатно! Внесите свою лепту в развитие PiratBit!
    Комментировать посты могут только пользователи прошедшие не сложную регистрацию
    Показать сообщения:    

    Борьба с моей семьей через торрент
    Скачать бесплатно Борьба с моей семьей
    Борьба с моей семьей скачать торрент
    Борьба с моей семьей смотреть онлайн
    Cкачать фильм Борьба с моей семьей бесплатно
    Борьба с моей семьей скачать торрент в хорошем качестве
    Борьба с моей семьей смотреть онлайн бесплатно в хорошем качестве


    Вы не можете начинать темы
    Вы не можете отвечать на сообщения
    Вы не можете редактировать свои сообщения
    Вы не можете удалять свои сообщения
    Вы не можете голосовать в опросах
    Вы не можете прикреплять файлы к сообщениям
    Вы можете скачивать файлы