Ссылка на приватное зеркало всего за 1$. Внимание количество ограничено!!!

OK

1+1

iTunes

мы

OK

1

WEB-DLRip

Джокер

Пифагор

Ведьмак / The Witcher сериал

Лицензия

ПШазам

ОК

Оно 2

iTunes

30
pack

Вам бонус

ВАЖНО

!!Акция!!

Alien_RageХит недели

RePack

Resident Evil 21

ИГРА 18+

pack

RePack

jed

RePack

fifa19

RePack

Assassins Creed: Odyssey

RePack

NEED FOR SPEED™ PAYBACK

4 сезон

9 сезон

Бесстыжие 9 сезон

Все сериалы

все сериалы на PB.wtf

RePack

FAR CRY 5
  

Мстители: Финал / Avengers: Endgame (Энтони Руссо, Джо Руссо) [2019, фантастика, фэнтези, боевик, BDRip 1080p, HEVC] DUB [iTunes] + MVO [HDrezka Studio] pb.wtf

Мстители: Финал через торрент pb.wtf

Раздают: 10 [ 0 KB/s ]
Размер: 8.28 GB | Добавлен: 5 мес. 18 д. назад | Торрент скачан:1163 раза
Скачать  

04-08-2019 15:59 Мстители: Финал Скачать торрент  

Мстители: Финал / Avengers: Endgame««Avenge the fallen»»

Год выпуска: 2019
Страна: США
Жанр: фантастика, фэнтези, боевик, приключения
Продолжительность: 03:01:09
Перевод: Дублированный | iTunes
Субтитры: Русские (форсированные, полные), английские
Режиссер: Энтони Руссо, Джо Руссо

В ролях:

Роберт Дауни мл. (Tony Stark / Iron Man), Крис Эванс (Steve Rogers / Captain America), Марк Руффало (Bruce Banner / Hulk), Крис Хемсворт (Thor), Скарлетт Йоханссон (Natasha Romanoff / Black Widow), Джереми Реннер (Clint Barton / Hawkeye), Дон Чидл (James Rhodes / War Machine), Пол Радд (Scott Lang / Ant-Man), Бри Ларсон (Carol Danvers / Captain Marvel), Карен Гиллан (Nebula), Бенедикт Камбербэтч (Doctor Strange), Чедвик Боузман (T'Challa / Black Panther)
Описание:
Оставшиеся в живых члены команды Мстителей и их союзники должны разработать новый план, который поможет противостоять разрушительным действиям могущественного титана Таноса. После наиболее масштабной и трагической битвы в истории они не могут допустить ошибку.
Рейтинг:

MPAA: PG-13 - Детям до 13 лет просмотр не желателен
Качество: BDRip 1080p
Формат: MKV
Видео: HEVC, 5453 Кбит/с, 1920x804, 8 бит
Аудио #01: Русский - 48 kHz, AC3, 5.1, 384 Kbps - Дублированный (iTunes)
Аудио #02: Русский - 48 kHz, AC3, 2.0, 256 Kbps - Профессиональный многоголосый (HDrezka Studio)
Аудио #03: Английский - 48 kHz, AC3, 5.1, 448 Kbps - Оригинал
Навигация по главам: есть

General
Unique ID : 171360403547618974707006662906438977936 (0x80EAD030FC5D7AED123DEA2A3B638990)
Complete name : H:\Avengers Endgame\avengers endgame hevc 1080p.mkv
Format : Matroska
Format version : Version 4 / Version 2
File size : 8.28 GiB
Duration : 3 h 1 min
Overall bit rate : 6 531 kb/s
Movie name : Avengers: Endgame
Encoded date : UTC 2019-08-04 10:41:58
Writing application : mkvmerge v27.0.0 ('Metropolis') 64-bit
Writing library : libebml v1.3.6 + libmatroska v1.4.9

Video
ID : 1
Format : HEVC
Format/Info : High Efficiency Video Coding
Format profile : Main@L4@High
Codec ID : V_MPEGH/ISO/HEVC
Duration : 3 h 1 min
Bit rate : 5 453 kb/s
Width : 1 920 pixels
Height : 804 pixels
Display aspect ratio : 2.40:1
Frame rate mode : Constant
Frame rate : 23.976 (24000/1001) FPS
Color space : YUV
Chroma subsampling : 4:2:0
Bit depth : 8 bits
Bits/(Pixel*Frame) : 0.147
Stream size : 6.90 GiB (83%)
Title : Avengers: Endgame (2019) - Encoded by Immortel
Writing library : x265 3.1+5-9c5c9cef2a86:[Windows][MSVC 1921][64 bit] 8bit+10bit+12bit
Encoding settings : cpuid=1111039 / frame-threads=2 / numa-pools=4 / wpp / pmode / no-pme / no-psnr / no-ssim / log-level=2 / input-csp=1 / input-res=1920x804 / interlace=0 / total-frames=260652 / level-idc=40 / high-tier=1 / uhd-bd=0 / ref=4 / no-allow-non-conformance / no-repeat-headers / annexb / aud / hrd / info / hash=0 / no-temporal-layers / no-open-gop / min-keyint=24 / keyint=240 / gop-lookahead=0 / bframes=6 / b-adapt=2 / b-pyramid / bframe-bias=0 / rc-lookahead=60 / lookahead-slices=1 / scenecut=40 / radl=0 / no-splice / no-intra-refresh / ctu=64 / min-cu-size=8 / no-rect / no-amp / max-tu-size=32 / tu-inter-depth=1 / tu-intra-depth=4 / limit-tu=0 / rdoq-level=0 / dynamic-rd=0.00 / no-ssim-rd / signhide / no-tskip / nr-intra=0 / nr-inter=0 / no-constrained-intra / no-strong-intra-smoothing / max-merge=5 / limit-refs=1 / no-limit-modes / me=3 / subme=4 / merange=57 / temporal-mvp / weightp / weightb / no-analyze-src-pics / deblock=0:0 / no-sao / no-sao-non-deblock / rd=4 / early-skip / no-rskip / no-fast-intra / no-tskip-fast / no-cu-lossless / no-b-intra / no-splitrd-skip / rdpenalty=0 / psy-rd=1.00 / psy-rdoq=0.00 / no-rd-refine / no-lossless / cbqpoffs=0 / crqpoffs=0 / rc=crf / crf=16.0 / qcomp=0.60 / qpstep=4 / stats-write=0 / stats-read=0 / vbv-maxrate=30000 / vbv-bufsize=30000 / vbv-init=0.9 / crf-max=0.0 / crf-min=0.0 / ipratio=1.75 / pbratio=1.50 / aq-mode=2 / aq-strength=1.00 / no-cutree / zone-count=0 / no-strict-cbr / qg-size=64 / no-rc-grain / qpmax=69 / qpmin=0 / no-const-vbv / sar=1 / overscan=0 / videoformat=5 / range=0 / colorprim=1 / transfer=1 / colormatrix=1 / chromaloc=0 / display-window=0cll=0,0 / min-luma=0 / max-luma=255 / log2-max-poc-lsb=8 / vui-timing-info / vui-hrd-info / slices=1 / no-opt-qp-pps / no-opt-ref-list-length-pps / no-multi-pass-opt-rps / scenecut-bias=0.05 / no-opt-cu-delta-qp / no-aq-motion / no-hdr / no-hdr-opt / no-dhdr10-opt / no-idr-recovery-sei / analysis-reuse-level=5 / scale-factor=0 / refine-intra=0 / refine-inter=0 / refine-mv=0 / refine-ctu-distortion=0 / no-limit-sao / ctu-info=0 / no-lowpass-dct / refine-analysis-type=0 / copy-pic=1 / max-ausize-factor=1.0 / no-dynamic-refine / no-single-sei / no-hevc-aq / no-svt / no-field / qp-adaptation-range=1.00
Default : Yes
Forced : Yes
Color range : Limited
Color primaries : BT.709
Transfer characteristics : BT.709
Matrix coefficients : BT.709

Audio #1
ID : 2
Format : AC-3
Format/Info : Audio Coding 3
Codec ID : A_AC3
Duration : 3 h 1 min
Bit rate mode : Constant
Bit rate : 384 kb/s
Channel(s) : 6 channels
Channel positions : Front: L C R, Side: L R, LFE
Sampling rate : 48.0 kHz
Frame rate : 31.250 FPS (1536 SPF)
Bit depth : 16 bits
Compression mode : Lossy
Stream size : 499 MiB (6%)
Title : Dubbing (iTunes)
Language : Russian
Service kind : Complete Main
Default : Yes
Forced : Yes

Audio #2
ID : 3
Format : AC-3
Format/Info : Audio Coding 3
Codec ID : A_AC3
Duration : 3 h 1 min
Bit rate mode : Constant
Bit rate : 256 kb/s
Channel(s) : 2 channels
Channel positions : Front: L R
Sampling rate : 48.0 kHz
Frame rate : 31.250 FPS (1536 SPF)
Bit depth : 16 bits
Compression mode : Lossy
Stream size : 333 MiB (4%)
Title : Multi VoiceOver (HDrezka Studio)
Language : Russian
Service kind : Complete Main
Default : No
Forced : No

Audio #3
ID : 4
Format : AC-3
Format/Info : Audio Coding 3
Codec ID : A_AC3
Duration : 3 h 1 min
Bit rate mode : Constant
Bit rate : 448 kb/s
Channel(s) : 6 channels
Channel positions : Front: L C R, Side: L R, LFE
Sampling rate : 48.0 kHz
Frame rate : 31.250 FPS (1536 SPF)
Bit depth : 16 bits
Compression mode : Lossy
Stream size : 581 MiB (7%)
Title : Original
Language : English
Service kind : Complete Main
Default : No
Forced : No

Text #1
ID : 5
Format : UTF-8
Codec ID : S_TEXT/UTF8
Codec ID/Info : UTF-8 Plain Text
Duration : 2 h 17 min
Bit rate : 1 b/s
Count of elements : 34
Stream size : 1.14 KiB (0%)
Title : Forced
Language : Russian
Default : Yes
Forced : Yes

Text #2
ID : 6
Format : UTF-8
Codec ID : S_TEXT/UTF8
Codec ID/Info : UTF-8 Plain Text
Duration : 3 h 0 min
Bit rate : 78 b/s
Count of elements : 2627
Stream size : 104 KiB (0%)
Title : SDH
Language : Russian
Default : No
Forced : No

Text #3
ID : 7
Format : UTF-8
Codec ID : S_TEXT/UTF8
Codec ID/Info : UTF-8 Plain Text
Duration : 2 h 47 min
Bit rate : 49 b/s
Count of elements : 2329
Stream size : 61.1 KiB (0%)
Language : English
Default : No
Forced : No

Text #4
ID : 8
Format : UTF-8
Codec ID : S_TEXT/UTF8
Codec ID/Info : UTF-8 Plain Text
Duration : 3 h 0 min
Bit rate : 51 b/s
Count of elements : 2630
Stream size : 68.3 KiB (0%)
Title : SDH
Language : English
Default : No
Forced : No

Menu
00:00:00.000 : en:00:00:00.000
00:08:05.902 : en:00:08:05.902
00:20:01.700 : en:00:20:01.700
00:26:15.282 : en:00:26:15.282
00:36:57.173 : en:00:36:57.173
00:43:20.598 : en:00:43:20.598
00:48:44.171 : en:00:48:44.171
00:57:36.745 : en:00:57:36.745
01:07:12.612 : en:01:07:12.612
01:16:02.516 : en:01:16:02.516
01:26:25.430 : en:01:26:25.430
01:32:20.118 : en:01:32:20.118
01:38:55.805 : en:01:38:55.805
01:48:12.361 : en:01:48:12.361
01:57:26.915 : en:01:57:26.915
02:05:00.243 : en:02:05:00.243
02:15:06.432 : en:02:15:06.432
02:25:50.450 : en:02:25:50.450
02:34:37.935 : en:02:34:37.935
02:43:03.899 : en:02:43:03.899
02:49:05.344 : en:02:49:05.344
pb.wtf



Скачать Мстители: Финал через торрент https://c.radikal.ru/c40/1908/b3/02684de124b0.png Скачать фильм Мстители: Финал через торрент бесплантно в хорошем качестве Описание: Оставшиеся в живых члены команды Мстителей и их союзники должны разработать новый план, который поможет противостоять ... 10 10 26
Info! Золотая раздача, скачанное не засчитывается.
Торрент: Зарегистрирован [2019-08-04 15:59] · скачан: 1 163 раз
Статус: √ проверено
Размер: 8.28 GB
Как cкачать? Как скачать Мстители: Финал через торрент | qTorrent

% Раздел Тема Автор DL S | L
Фильмы (Blu-ray, BD-Remux, HDDVD) [ 36.52 GB ] Мстители: Финал / Avengers: Endgame [2019 BD Remux 1080p] +MVO [HDRezka Studio] bober100 Скачать
4 | 0
Ultra HD (UHD: 2K, 4K, 8K) — видео сверхвысокой чёткости [ 69.96 GB ] Мстители: Финал / Avengers: Endgame [2019 UHD Blu-ray 2160p] DUB [] sheker187 Скачать
1 | 0
Фильмы (HD 720p, 1080p) (48-60 fps) [ 32.13 GB ] Мстители: Финал / Avengers: Endgame [2019 BDRip 1080p 60 fps] sheker187 Скачать
3 | 0
3D Фильмы [ 17.73 GB ] Мстители: Финал в 3Д / Avengers: Endgame 3D [2019 BDRip 1080p] OverUnder / Вертикальная стереопара () serega768 Скачать
3 | 0
3D Фильмы [ 17.3 GB ] Мстители: Финал 3Д / Avengers: Endgame 3D [2019 BDRip 1080p] [Half OverUnder] DUB bober100 Скачать
5 | 0
Фильмы (HD 720p, 1080p) (48-60 fps) [ 6.37 GB ] Мстители: Финал / Avengers: Endgame [2019 BDRip - HEVC 1080p 10 bit 60 FPS] - dd2d3 Скачать
16 | 0
Фильмы [HD 720p, 1080p] (Хороший звук DUB, MVO) [ 17.52 GB ] Мстители: Финал / Avengers: Endgame [2019 BDRip 1080p] +MVO [HDRezka Studio] bober100 Скачать
10 | 0

28-11-2019 20:33  

Отключить всю рекламу на сайте

04-08-2019 16:18 Мстители: Финал Скачать торрент  

и вы уже выскуливать деньги, что за бред , вечно вам не хватает, ТАК ИДИТЕ НАФИГ РАБОТУ НАЙДИТЕ,,, реально как бомжы себя ведете, у вас в каждом фильме рекламы как говна

На что вам деньги все новинки фильмов вы с кошары 777 берете ( пикабу он сейчас или как то похоже зовется)
ну мы вам должны бабла ???? ваш заведомо проигрышный №энтузиазизм№
Ни одного сайта с вытянутой рукой не видел за 5 лет,,, только вы циганеpb.wtf



04-08-2019 18:08 Мстители: Финал Скачать торрент  

mixailz писал(а):

и вы уже выскуливать деньги, что за бред , вечно вам не хватает, ТАК ИДИТЕ НАФИГ РАБОТУ НАЙДИТЕ,,, реально как бомжы себя ведете, у вас в каждом фильме рекламы как говна

На что вам деньги все новинки фильмов вы с кошары 777 берете ( пикабу он сейчас или как то похоже зовется)
ну мы вам должны бабла ???? ваш заведомо проигрышный №энтузиазизм№
Ни одного сайта с вытянутой рукой не видел за 5 лет,,, только вы цигане

Выдыхай малыш, тебя ждет психиатр pb.wtf



04-08-2019 19:20 Мстители: Финал Скачать торрент  

mixailz писал(а):

и вы уже выскуливать деньги, что за бред , вечно вам не хватает, ТАК ИДИТЕ НАФИГ РАБОТУ НАЙДИТЕ,,, реально как бомжы себя ведете, у вас в каждом фильме рекламы как говна

На что вам деньги все новинки фильмов вы с кошары 777 берете ( пикабу он сейчас или как то похоже зовется)
ну мы вам должны бабла ???? ваш заведомо проигрышный №энтузиазизм№
Ни одного сайта с вытянутой рукой не видел за 5 лет,,, только вы цигане

братан, ты с какой луны свалился? из какого леса вылез?
пойми одну простую вещь - ты пользуешься такими ресурсами ТОЛЬКО ПОТОМУ , что ребята делают это по своей инициативые, и НИКТО им не платит за потраченное время. И вполне логично, что эти замечательные парни (мб и девушки) хотят заработать денег за свой труд. Реклама на сайтах - это давно есстественный способ заработка. Тебя что, кто то заставляет? ты хоть копейку кинул им за их труд ? Не нравится- иди плати за сервисы и НИКОГДА больше не пользуйся халявой.
И правильно пишется " цЕгане". Иди школу лучше заканчивай, нытик.pb.wtf



05-08-2019 17:36 Мстители: Финал Скачать торрент  

Небольшой урок русского: "Цыган подошёл к цыплёнку на цыпочках и сказал ему "цыц".
В остальном согласен. Захотел халявы - смотри рекламу)))pb.wtf



06-08-2019 09:06 Мстители: Финал Скачать торрент  

Всех напихали в одно кино,а про аквамена забыли,беда какая
Если бы не пафос,можно было бы спокойно смотреть,а так,подташнивает уже от этих "суперхероев"pb.wtf



09-08-2019 19:20 Мстители: Финал Скачать торрент  

Skazzzzzzzzza, чувак, надеюсь, это сарказм...

P.S. Кхал Дрого из вселенной DC pb.wtf



16-09-2019 17:17 Мстители: Финал Скачать торрент  

Странно! На разных проигрывателях попытался воспроизвести - в итоге кроме звука ничего больше там нет.pb.wtf



19-10-2019 20:34 Мстители: Финал Скачать торрент  

Где видеоряд? Один звук только!pb.wtf



    Дорогой пользователь! Огромная просьба, поблагодарите релизера, оцените раздачу и оставьте свои комментарий, если Вы скачали Мстители: Финал через торрент бесплатно! Внесите свою лепту в развитие PiratBit!
    Комментировать посты могут только пользователи прошедшие не сложную регистрацию
    Показать сообщения:    

    Мстители: Финал через торрент
    Скачать бесплатно Мстители: Финал
    Мстители: Финал скачать торрент
    Мстители: Финал смотреть онлайн
    Cкачать фильм Мстители: Финал бесплатно
    Мстители: Финал скачать торрент в хорошем качестве
    Мстители: Финал смотреть онлайн бесплатно в хорошем качестве


    Вы не можете начинать темы
    Вы не можете отвечать на сообщения
    Вы не можете редактировать свои сообщения
    Вы не можете удалять свои сообщения
    Вы не можете голосовать в опросах
    Вы не можете прикреплять файлы к сообщениям
    Вы можете скачивать файлы