Ссылка на приватное зеркало нашего сайта всего за 1$. Внимание количество ограничено!!!

2 сезон

iTunes

1 сезон

1

2 сезон

2 сезон

iTunes

1 сезон

RePack

30

Ultimate

ВАЖНО

ИГРА 18+

pack

RePack

MK11
pack

Забери бонус

RePack

jed

!!Акция!!

Alien_Rage

RePack

fifa19

RePack

Assassins Creed: Odyssey

RePack

NEED FOR SPEED™ PAYBACK

4 сезон

9 сезон

Бесстыжие 9 сезон

Все сериалы

все сериалы на PB.wtf

RePack

FAR CRY 5
  

Женский бойцовский клуб / Female Fight Club (Мигель А. Феррер) [2017, Боевик, драма, WEB-DL 1080p] MVO [Прайд Продакшн] pb.wtf

Женский бойцовский клуб через торрент pb.wtf

Размер: 3.74 GB | Добавлен: 1 год 3 мес. назад | Торрент скачан:94 раза
Скачать  

05-08-2019 10:36 Женский бойцовский клуб Скачать торрент  

Женский бойцовский клуб / Female Fight Club
Год выпуска: 2017
Страна: США
Жанр: Боевик, драма
Продолжительность: 01:30:01
Перевод: Профессиональный (многоголосый) | Прайд Продакшн

Режиссер: Мигель А. Феррер

rating


В ролях: Эми Джонстон, Кортни Палм, Рей Гойос, Шон Фэрис, Дольф Лундгрен, Шон Браун, Леви Трэн, Фолаке Оловофойеку, Мишель Джубили Гонсалес

Описание: Спустя пять лет Бэкс по прозвищу Зверюга, возвращается в родной городок, чтобы снова, как и пять лет назад, помочь своей сестре разобраться с её проблемами. На этот раз сестра задолжала местному организатору боёв без правил, и единственный способ отдать долг - заработать деньги, победив в ежегодном чемпионате по боям без правил, одолев самого главного и страшного противника - Бычару Клэр. Но все оказывается не так просто, да и сама Бэкс - отнюдь не положительный герой.

Качество: WEB-DL 1080p
Формат: MKV

Видео: MPEG-4 AVC, 5114 Kбит/с, 1920x1080, 24.000 кадр/с
Аудио#1: Русский (АС3, 6 ch, 384 Кбит/с, 48.0 KHz) Профессиональный (многоголосый, закадровый) Прайд Продакшн
Аудио#2: Английский (АС3, 6 ch, 448 Кбит/с, 48.0 KHz)
скриншот  скриншот  скриншот  скриншот  скриншот  

Источник: Female.Fight.Club.2017.WEB-DL.1080p
General
General
Unique ID : 196319941588032035269714828542833850611 (0x93B1D86D585AF39E81033AF64EDFF8F3)
Complete name : Female.Fight.Club.2017.WEB-DL.1080p.mkv
Format : Matroska
Format version : Version 4
File size : 3.74 GiB
Duration : 1 h 30 min
Overall bit rate : 5 948 kb/s
Encoded date : UTC 2019-08-05 00:00:11
Writing application : mkvmerge v7.1.0 ('Good Love') 64bit built on Jul 27 2014 13:06:55
Writing library : libebml v1.3.0 + libmatroska v1.4.1

Video
ID : 1
Format : AVC
Format/Info : Advanced Video Codec
Format profile : High@L4
Format settings : CABAC / 4 Ref Frames
Format settings, CABAC : Yes
Format settings, Reference fra : 4 frames
Codec ID : V_MPEG4/ISO/AVC
Duration : 1 h 30 min
Bit rate : 5 114 kb/s
Width : 1 920 pixels
Height : 1 080 pixels
Display aspect ratio : 16:9
Frame rate mode : Constant
Frame rate : 24.000 FPS
Color space : YUV
Chroma subsampling : 4:2:0
Bit depth : 8 bits
Scan type : Progressive
Bits/(Pixel*Frame) : 0.103
Stream size : 3.22 GiB (86%)
Language : English
Default : Yes
Forced : No

Audio #1
ID : 2
Format : AC-3
Format/Info : Audio Coding 3
Commercial name : Dolby Digital
Codec ID : A_AC3
Duration : 1 h 30 min
Bit rate mode : Constant
Bit rate : 384 kb/s
Channel(s) : 6 channels
Channel layout : L R C LFE Ls Rs
Sampling rate : 48.0 kHz
Frame rate : 31.250 FPS (1536 SPF)
Bit depth : 16 bits
Compression mode : Lossy
Stream size : 247 MiB (6%)
Language : Russian
Service kind : Complete Main
Default : Yes
Forced : No

Audio #2
ID : 3
Format : AC-3
Format/Info : Audio Coding 3
Commercial name : Dolby Digital
Codec ID : A_AC3
Duration : 1 h 29 min
Bit rate mode : Constant
Bit rate : 448 kb/s
Channel(s) : 6 channels
Channel layout : L R C LFE Ls Rs
Sampling rate : 48.0 kHz
Frame rate : 31.250 FPS (1536 SPF)
Bit depth : 16 bits
Compression mode : Lossy
Stream size : 288 MiB (8%)
Language : English
Service kind : Complete Main
Default : No
Forced : No

Text #1
ID : 4
Format : UTF-8
Codec ID : S_TEXT/UTF8
Codec ID/Info : UTF-8 Plain Text
Duration : 1 h 25 min
Bit rate : 45 b/s
Count of elements : 986
Stream size : 28.7 KiB (0%)
Language : English
Default : No
Forced : No

Text #2
ID : 5
Format : UTF-8
Codec ID : S_TEXT/UTF8
Codec ID/Info : UTF-8 Plain Text
Duration : 1 h 25 min
Bit rate : 50 b/s
Count of elements : 1156
Stream size : 31.5 KiB (0%)
Title : SDH
Language : English
Default : No
Forced : No

Menu
00:00:00.000 : en:1
00:02:53.000 : en:2
00:12:37.000 : en:3
00:23:53.000 : en:4
00:31:47.000 : en:5
00:41:00.000 : en:6
00:50:53.000 : en:7
00:58:33.000 : en:8
01:05:52.000 : en:9
01:13:58.000 : en:10
01:25:45.000 : en:11

pb.wtf



Скачать Женский бойцовский клуб через торрент http://d.radikal.ru/d25/1908/36/d8f598e0f774.jpg Скачать фильм Женский бойцовский клуб через торрент бесплантно в хорошем качестве Описание: Спустя пять лет Бэкс по прозвищу Зверюга, возвращается в родной городок, чтобы снова, как и пять лет назад, помочь своей сестре ... 10 10 6
Info! Золотая раздача, скачанное не засчитывается.
Торрент: Зарегистрирован [2019-08-05 10:36] · скачан: 94 раз
Статус: √ проверено
Размер: 3.74 GB
Как cкачать? Как скачать Женский бойцовский клуб через торрент | qTorrent

% Раздел Тема Автор DL S | L
Фильмы 2017 [DVDrip, WEB-DLRip, HDrip] (DUB, MVO) [ 745 MB ] Женский бойцовский клуб / Female Fight Club [2017 HDRip] MVO [Прайд Продакшн] surikmas Скачать
1 | 0
T Фильмы [HD 720p, 1080p] (Хороший звук DUB, MVO) [ 6.8 GB ] Женский бойцовский клуб / Female Fight Club [2017 BDRip 1080p] MVO bober100 Скачать
1 | 0

28-11-2019 20:33  

Отключить всю рекламу на сайте

05-08-2019 20:02 Женский бойцовский клуб Скачать торрент  

че как кинчик?pb.wtf



06-08-2019 07:32 Женский бойцовский клуб Скачать торрент  

Хайпанули немножечко на Паланике. По рейтингам, впринципе понятно, какого уровня этот кинчикpb.wtf



06-08-2019 08:57 Женский бойцовский клуб Скачать торрент  

фильмы катастрофаpb.wtf



    Дорогой пользователь! Огромная просьба, поблагодарите релизера, оцените раздачу и оставьте свои комментарий, если Вы скачали Женский бойцовский клуб через торрент бесплатно! Внесите свою лепту в развитие PiratBit!
    Комментировать посты могут только пользователи прошедшие не сложную регистрацию
    Показать сообщения:    

    Женский бойцовский клуб через торрент
    Скачать бесплатно Женский бойцовский клуб
    Женский бойцовский клуб скачать торрент
    Женский бойцовский клуб смотреть онлайн
    Cкачать фильм Женский бойцовский клуб бесплатно
    Женский бойцовский клуб скачать торрент в хорошем качестве
    Женский бойцовский клуб смотреть онлайн бесплатно в хорошем качестве


    Вы не можете начинать темы
    Вы не можете отвечать на сообщения
    Вы не можете редактировать свои сообщения
    Вы не можете удалять свои сообщения
    Вы не можете голосовать в опросах
    Вы не можете прикреплять файлы к сообщениям
    Вы можете скачивать файлы