Ссылка на приватное зеркало всего за 1$. Внимание количество ограничено!!!


iTunes

1+1

iTunes

мы

WEB-DL

1

iTunes

Чернобыль

iTunes

Ральф против интернета

Лицензия

ПШазам

Лицензия

Оно 2

WEB-DL

30
pack

Вам бонус

ВАЖНО

!!Акция!!

Alien_RageХит недели

RePack

Resident Evil 21

ИГРА 18+

pack

RePack

jed

!!Акция!!

Alien_Rage

RePack

fifa19

RePack

Assassins Creed: Odyssey

RePack

NEED FOR SPEED™ PAYBACK

4 сезон

9 сезон

Бесстыжие 9 сезон

Все сериалы

все сериалы на PB.wtf

RePack

FAR CRY 5
Ребята, катастрофически не хватает 1900р. для оплаты серверов за Октябрь (всвязи с блокировками трафик упал в 3 раза), 1-2р., выручайте.
  

Город лжи / City of Lies (Брэд Фурман) [2019, триллер, драма, криминал, детектив, биография, BDRip-AVC] 2xMVO [СВ Студия, HDRezka Studio] pb.wtf

Город лжи через торрент pb.wtf

Раздают: 2 [ 0 KB/s ]
Размер: 2.26 GB | Добавлен: 4 мес. 10 д. назад | Торрент скачан:202 раза
Скачать  

05-08-2019 11:56 Город лжи Скачать торрент  

Город лжи / City of Lies«Кто убил Бигги?»
Год выпуска: 2019
Страна: Великобритания, США
Жанр: триллер, драма, криминал, детектив, биография
Продолжительность: 01:52:17
Перевод:

Профессиональный (многоголосый) | СВ Студия
Профессиональный (многоголосый) | HDRezka Studio

Субтитры: отсутствуют

Режиссер: Брэд Фурман

rating


В ролях:

Джонни Депп (Russell Poole), Форест Уитакер (Jack Jackson), Тоби Хасс (Detective Fred Miller), Дэйтон Калли (Lieutenant O'Shea), Нил Браун мл. (Rafael Perez), Луис Хертэм (City Attorney Stone), Шей Уигэм (Frank Lyga), Ксандер Беркли (Edwards), Мелани Бенц (Jessica), Шамир Андерсон (David Mack), Лоуренс Мэйсон (FBI Agent Dunton), Кристиан Джордж (Belsher)
Описание: 7 сентября 1996 года был смертельно ранен рэпер Тупак Шакур, через полгода был застрелен главный подозреваемый в его убийстве - хип-хоп-звезда Бигги Смолз. Преступники не были найдены, дело о «рэперской войне побережий» было закрыто. Спустя годы опальный детектив Рассел Пул возвращается к расследованию и вместе с репортером Джексоном распутывает паутину немыслимого заговора, в котором, очевидно, замешана полиция Лас-Вегаса.

Качество: BDRip-AVC
Формат: MKV

Видео: 1024x428 (2.40:1), 24,000 fps, x264 ~1 796 kbps avg, 0.171 bit/pixel
Аудио#1: 48 kHz, AC3 Dolby Digital, 3/2 (L,C,R,l,r) + LFE ch, ~448.00 kbps avg | RUS (СВ Студия)
Аудио#2: 48 kHz, AC3 Dolby Digital, 2 (L,R) ch, ~192.00 kbps avg | RUS (HDRezka Studio)
Аудио#3: 48 kHz, AC3 Dolby Digital, 3/2 (L,C,R,l,r) + LFE ch, ~448.00 kbps avg | ENG
скриншот  скриншот  скриншот  скриншот  скриншот  

Общее
Уникальный идентификатор : 286885343113035010334291175737282543542 (0xD7D41B776795D1BC7AFE709695A83FB6)
Полное имя : F:\OlLanDGroup\City.of.Lies.2018.BDRip(AVC).OlLanDGroup.mkv
Формат : Matroska
Версия формата : Version 4 / Version 2
Размер файла : 2,26 Гбайт
Продолжительность : 1 ч. 52 м.
Общий поток : 2874 Кбит/сек
Название фильма : City.of.Lies.2018 #TorpedoUK#
Дата кодирования : UTC 2019-08-05 11:34:07
Программа кодирования : mkvmerge v29.0.0 ('Like It Or Not') 64-bit
Библиотека кодирования : libebml v1.3.6 + libmatroska v1.4.9

Видео
Идентификатор : 1
Формат : AVC
Формат/Информация : Advanced Video Codec
Профиль формата : High@L4.1
Параметр CABAC формата : Да
Параметр ReFrames формата : 10 кадров
Идентификатор кодека : V_MPEG4/ISO/AVC
Продолжительность : 1 ч. 52 м.
Битрейт : 1796 Кбит/сек
Ширина : 1024 пикселя
Высота : 428 пикселей
Соотношение сторон : 2,40:1
Режим частоты кадров : Постоянный
Частота кадров : 24,000 кадра/сек
Цветовое пространство : YUV
Субдискретизация насыщенности : 4:2:0
Битовая глубина : 8 бит
Тип развёртки : Прогрессивная
Бит/(Пиксели*Кадры) : 0.171
Размер потока : 1,40 Гбайт (62%)
Библиотека кодирования : x264 core 146 r2538 121396c
Настройки программы : cabac=1 / ref=10 / deblock=1:-3:-3 / analyse=0x3:0x113 / me=umh / subme=11 / psy=1 / psy_rd=0.97:0.05 / mixed_ref=1 / me_range=48 / chroma_me=1 / trellis=2 / 8x8dct=1 / cqm=0 / deadzone=21,11 / fast_pskip=1 / chroma_qp_offset=-3 / threads=6 / lookahead_threads=1 / sliced_threads=0 / nr=0 / decimate=1 / interlaced=0 / bluray_compat=0 / constrained_intra=0 / bframes=11 / b_pyramid=2 / b_adapt=2 / b_bias=0 / direct=3 / weightb=1 / open_gop=0 / weightp=2 / keyint=240 / keyint_min=24 / scenecut=40 / intra_refresh=0 / rc_lookahead=40 / rc=2pass / mbtree=0 / bitrate=1796 / ratetol=1.0 / qcomp=0.60 / qpmin=0 / qpmax=69 / qpstep=4 / cplxblur=20.0 / qblur=0.5 / vbv_maxrate=50000 / vbv_bufsize=62500 / nal_hrd=none / filler=0 / ip_ratio=1.40 / pb_ratio=1.30 / aq=1:1.00
Язык : English
Default : Да
Forced : Нет

Аудио #1
Идентификатор : 2
Формат : AC-3
Формат/Информация : Audio Coding 3
Расширение режима : CM (complete main)
Параметр Endianness формата : Big
Идентификатор кодека : A_AC3
Продолжительность : 1 ч. 52 м.
Вид битрейта : Постоянный
Битрейт : 448 Кбит/сек
Каналы : 6 каналов
Расположение каналов : Front: L C R, Side: L R, LFE
Частота : 48,0 КГц
Частота кадров : 31,250 кадров/сек (1536 spf)
Битовая глубина : 16 бит
Метод сжатия : С потерями
Размер потока : 360 Мбайт (16%)
Заголовок : MVO [СВ Студия]
Язык : Russian
Default : Да
Forced : Нет

Аудио #2
Идентификатор : 3
Формат : AC-3
Формат/Информация : Audio Coding 3
Расширение режима : CM (complete main)
Параметр Endianness формата : Big
Идентификатор кодека : A_AC3
Продолжительность : 1 ч. 52 м.
Вид битрейта : Постоянный
Битрейт : 192 Кбит/сек
Каналы : 2 канала
Расположение каналов : Front: L R
Частота : 48,0 КГц
Частота кадров : 31,250 кадров/сек (1536 spf)
Битовая глубина : 16 бит
Метод сжатия : С потерями
Размер потока : 154 Мбайт (7%)
Заголовок : MVO [HDRezka Studio]
Язык : Russian
Default : Нет
Forced : Нет

Аудио #3
Идентификатор : 4
Формат : AC-3
Формат/Информация : Audio Coding 3
Расширение режима : CM (complete main)
Параметр Endianness формата : Big
Идентификатор кодека : A_AC3
Продолжительность : 1 ч. 52 м.
Вид битрейта : Постоянный
Битрейт : 448 Кбит/сек
Каналы : 6 каналов
Расположение каналов : Front: L C R, Side: L R, LFE
Частота : 48,0 КГц
Частота кадров : 31,250 кадров/сек (1536 spf)
Битовая глубина : 16 бит
Метод сжатия : С потерями
Размер потока : 360 Мбайт (16%)
Заголовок : [Original]
Язык : English
Default : Нет
Forced : Нет

Меню
00:00:00.000 : en:Chapter 01
00:05:23.083 : en:Chapter 02
00:10:00.208 : en:Chapter 03
00:16:00.625 : en:Chapter 04
00:22:14.208 : en:Chapter 05
00:27:25.542 : en:Chapter 06
00:33:04.875 : en:Chapter 07
00:38:14.750 : en:Chapter 08
00:43:31.083 : en:Chapter 09
00:49:31.458 : en:Chapter 10
00:55:02.833 : en:Chapter 11
01:00:54.167 : en:Chapter 12
01:07:40.792 : en:Chapter 13
01:12:40.792 : en:Chapter 14
01:17:49.292 : en:Chapter 15
01:21:38.500 : en:Chapter 16
01:27:32.875 : en:Chapter 17
01:32:16.250 : en:Chapter 18
01:38:06.667 : en:Chapter 19
01:43:18.833 : en:Chapter 20

pb.wtf



Скачать Город лжи через торрент https://i110.fastpic.ru/big/2019/0629/07/b6e9ec7251ab706ee2ab13ab39692d07.jpg Скачать фильм Город лжи через торрент бесплантно в хорошем качестве Описание: 7 сентября 1996 года был смертельно ранен рэпер Тупак Шакур, через полгода был застрелен главный подозреваемый в его убийстве - ... 10 10 8
Торрент: Зарегистрирован [2019-08-05 11:56] · скачан: 202 раз
Статус: √ проверено
Размер: 2.26 GB
Как cкачать? Как скачать Город лжи через торрент | qTorrent

% Раздел Тема Автор DL S | L
Фильмы [HD 720p, 1080p] (Хороший звук DUB, MVO) [ 6.45 GB ] Город лжи / City of Lies [2019 биография BDRip 720p] MVO [СВ Студия] bober100 Скачать
3 | 0
Фильмы 2018 [DVDrip, WEB-DLRip, HDrip] (DUB, MVO) [ 745 MB ] Город лжи / City of Lies [2018 BDRip-AVC] MVO [СВ Студия] sokol_ok Скачать
4 | 4
Фильмы 2018 [DVDrip, WEB-DLRip, HDrip] (DUB, MVO) [ 2.18 GB ] Город лжи / City of Lies [2018 BDRip-AVC] MVO [СВ Студия] sokol_ok Скачать
27 | 0
Фильмы 2018 [DVDrip, WEB-DLRip, HDrip] (DUB, MVO) [ 1.47 GB ] Город лжи / City of Lies [2018 BDRip-AVC] MVO [СВ Студия] sokol_ok Скачать
22 | 1
Фильмы 2019 [DVDrip, WEB-DLRip, HDrip] (DUB, MVO) [ 1.46 GB ] Город лжи / City of Lies [2019 биография BDRip] [MVO] killermax2013 Скачать
2 | 0
Фильмы (Blu-ray, BD-Remux, HDDVD) [ 22.87 GB ] Город лжи / City of Lies [2018 BDRemux 1080p] MVO [СВ Студия] sheker187 Скачать
2 | 0
Фильмы [HD 720p, 1080p] (Хороший звук DUB, MVO) [ 10.55 GB ] Город лжи / City of Lies [2018 BDRip 1080p] MVO [СВ Студия] sheker187 Скачать
2 | 0

28-11-2019 20:33  

Отключить всю рекламу на сайте

    Дорогой пользователь! Огромная просьба, поблагодарите релизера, оцените раздачу и оставьте свои комментарий, если Вы скачали Город лжи через торрент бесплатно! Внесите свою лепту в развитие PiratBit!
    Комментировать посты могут только пользователи прошедшие не сложную регистрацию
    Показать сообщения:    

    Город лжи через торрент
    Скачать бесплатно Город лжи
    Город лжи скачать торрент
    Город лжи смотреть онлайн
    Cкачать фильм Город лжи бесплатно
    Город лжи скачать торрент в хорошем качестве
    Город лжи смотреть онлайн бесплатно в хорошем качестве


    Вы не можете начинать темы
    Вы не можете отвечать на сообщения
    Вы не можете редактировать свои сообщения
    Вы не можете удалять свои сообщения
    Вы не можете голосовать в опросах
    Вы не можете прикреплять файлы к сообщениям
    Вы можете скачивать файлы